<?xml version="1.0" standalone="no"?>
<!DOCTYPE svg PUBLIC "-//W3C//DTD SVG 1.1//EN" "http://www.w3.org/Graphics/SVG/1.1/DTD/svg11.dtd" >
<svg xmlns="http://www.w3.org/2000/svg">
<metadata></metadata>
<defs>
<font id="typoninesans_regregular" horiz-adv-x="1433" >
<font-face units-per-em="2048" ascent="1597" descent="-451" />
<missing-glyph horiz-adv-x="468" />
<glyph unicode="&#xfb01;" horiz-adv-x="1101" d="M57 840v114l160 11v77q0 102 31.5 177t89 118.5t130 64.5t161.5 21q161 0 289 -51l-35 -151q-40 26 -109 47.5t-139 21.5q-138 0 -197 -57t-59 -186v-82h573v-965h-164v842h-409v-842h-162v840h-160z" />
<glyph unicode="&#xfb02;" horiz-adv-x="1107" d="M57 840v114l160 11v77q0 102 31.5 177t89 118.5t130 64.5t161.5 21q91 0 196 -20h127v-1403h-164v1272q-91 26 -165 26q-128 0 -186 -59.5t-58 -185.5v-88h254v-123h-254v-842h-162v840h-160z" />
<glyph unicode="&#xfb03;" horiz-adv-x="1673" d="M57 840v114l160 11v41q0 80 22 144.5t60 107.5t90 72t109.5 41.5t122.5 12.5q138 0 274 -61q106 100 307 100q159 0 287 -51l-35 -151q-40 26 -108 47.5t-138 21.5q-138 0 -197 -57t-59 -186v-82h572v-965h-162v842h-410v-842h-161v842h-412v-842h-162v840h-160zM379 965 h412v77q0 92 22 154q-99 61 -211 61q-100 0 -161.5 -61.5t-61.5 -187.5v-43z" />
<glyph unicode="&#xfb04;" horiz-adv-x="1679" d="M57 840v114l160 11v41q0 80 22 144.5t60 107.5t90 72t109.5 41.5t122.5 12.5q133 0 272 -59q106 98 307 98q92 0 197 -20h127v-1403h-164v1272q-91 26 -166 26q-127 0 -184.5 -59.5t-57.5 -185.5v-88h252v-123h-252v-842h-164v842h-409v-842h-162v840h-160zM379 965h409 v77q0 83 23 154q-95 61 -209 61q-100 0 -161.5 -61.5t-61.5 -187.5v-43z" />
<glyph horiz-adv-x="0" />
<glyph horiz-adv-x="682" />
<glyph unicode=" "  horiz-adv-x="468" />
<glyph unicode="&#x09;" horiz-adv-x="468" />
<glyph unicode="&#xa0;" horiz-adv-x="468" />
<glyph unicode="!" horiz-adv-x="579" d="M184 80q0 49 28.5 74.5t78.5 25.5q47 0 77.5 -25t30.5 -75q0 -49 -29.5 -74.5t-78.5 -25.5q-107 0 -107 100zM211 870v461h156v-463l-17 -458h-121z" />
<glyph unicode="&#x22;" horiz-adv-x="747" d="M102 1331h177l-33 -483h-107zM465 1331h178l-35 -483h-106z" />
<glyph unicode="#" horiz-adv-x="1230" d="M80 317l18 103h197l55 309h-213l19 102h213l55 308h129l-55 -308h315l55 308h129l-55 -308h207l-19 -102h-204l-56 -309h224l-19 -103h-223l-55 -317h-129l55 317h-315l-56 -317h-131l55 317h-196zM426 420h315l56 309h-316z" />
<glyph unicode="$" horiz-adv-x="995" d="M88 123l51 133q57 -41 142.5 -70t167.5 -32v462q-53 22 -83.5 36.5t-76 39t-72 48t-53.5 56t-39 72t-12 86.5q0 124 93.5 207.5t242.5 98.5v120h98v-116q182 -6 307 -70l-47 -135q-98 72 -260 82v-416q47 -20 75 -32t71 -34.5t69 -41.5t57 -48t47.5 -59t28.5 -70.5 t12 -85.5q0 -126 -101 -212t-259 -105v-113h-98v109q-219 3 -361 90zM266 967q0 -66 47 -111.5t136 -87.5v367q-85 -12 -134 -55.5t-49 -112.5zM547 160q90 14 147.5 60.5t57.5 119.5q0 81 -53.5 134t-151.5 99v-413z" />
<glyph unicode="%" horiz-adv-x="1478" d="M90 1026q0 140 83.5 232t240.5 92q162 0 242.5 -85.5t80.5 -238.5q0 -61 -19 -116.5t-57 -102t-102.5 -74.5t-146.5 -28q-322 0 -322 321zM227 1026q0 -101 40.5 -154t146.5 -53q103 0 142.5 53.5t39.5 153.5q0 41 -8 75.5t-27.5 66.5t-56.5 50.5t-90 18.5 q-187 0 -187 -211zM256 168l862 1055l84 -68l-858 -1049zM737 301q0 139 83.5 230.5t240.5 91.5q162 0 242.5 -85.5t80.5 -236.5q0 -61 -19 -117.5t-57 -103.5t-102.5 -75t-146.5 -28q-322 0 -322 324zM874 301q0 -102 40 -155.5t147 -53.5q103 0 142.5 53.5t39.5 155.5 q0 41 -8 75.5t-27.5 66t-56.5 49.5t-90 18q-187 0 -187 -209z" />
<glyph unicode="&#x26;" horiz-adv-x="1529" d="M92 326q0 131 97 237t274 146q-47 184 -47 315q0 144 83 235t234 91q38 0 73.5 -7.5t74 -27.5t66.5 -51.5t46.5 -85t18.5 -121.5q0 -80 -31.5 -150.5t-84.5 -121t-117 -85.5t-136 -55q79 -230 205 -356q118 153 135 381h426v-123h-311q-25 -100 -63.5 -176t-106.5 -158 q126 -102 264 -102q55 0 106.5 28t85.5 74l66 -125q-46 -51 -119.5 -79.5t-150.5 -28.5q-197 0 -367 133q-152 -133 -350 -133q-161 0 -266 101t-105 245zM252 344q0 -114 67.5 -176t161.5 -62q133 0 246 95q-149 157 -233 409q-131 -40 -186.5 -104.5t-55.5 -161.5z M569 1063q0 -155 41 -313q248 73 248 286q0 195 -135 195q-67 0 -110.5 -43t-43.5 -125z" />
<glyph unicode="'" horiz-adv-x="382" d="M102 1331h177l-37 -483h-101z" />
<glyph unicode="(" horiz-adv-x="716" d="M84 522q0 295 126 529.5t357 406.5l84 -92q-94 -80 -163.5 -159.5t-128 -181t-89 -226.5t-30.5 -271q0 -149 30 -274.5t89.5 -227.5t127.5 -179.5t164 -161.5l-78 -88q-234 168 -361.5 402.5t-127.5 522.5z" />
<glyph unicode=")" horiz-adv-x="716" d="M66 -315q96 84 164 161.5t127.5 179.5t89.5 227.5t30 274.5q0 145 -30.5 270.5t-89.5 227t-128 181t-163 159.5l84 92q229 -172 355 -407.5t126 -528.5q0 -290 -127 -523.5t-363 -401.5z" />
<glyph unicode="*" horiz-adv-x="813" d="M82 897l254 90q6 -24 26 -41l-196 -176zM82 1094l84 127l196 -166q-24 -11 -28 -49zM330 690l41 252q8 -6 32 -6q17 0 25 4l47 -250h-145zM330 1298h145l-45 -235q-12 6 -27 6q-8 0 -24 -4zM436 946q24 12 31 39l262 -90l-82 -123zM444 1055l203 164l82 -123l-260 -88 q-4 32 -25 47z" />
<glyph unicode="+" horiz-adv-x="1036" d="M96 543v119h355v327h133v-327h354v-119h-354v-338h-133v338h-355z" />
<glyph unicode="," horiz-adv-x="411" d="M23 -254q108 206 114 414h148q-6 -112 -47.5 -228.5t-108.5 -216.5z" />
<glyph unicode="-" horiz-adv-x="874" d="M174 455v143h526v-143h-526z" />
<glyph unicode="." horiz-adv-x="436" d="M111 80q0 49 28 74.5t78 25.5q49 0 79 -25t30 -75t-29 -75t-80 -25q-106 0 -106 100z" />
<glyph unicode="/" horiz-adv-x="905" d="M68 -106l637 1509h133l-635 -1509h-135z" />
<glyph unicode="0" horiz-adv-x="1251" d="M115 639q0 120 15 221t51.5 193.5t94 156.5t148 102t207.5 38q504 0 504 -650q0 -75 -6 -143.5t-22 -142.5t-41 -135.5t-66 -118t-94 -95.5t-127 -62t-163 -23q-251 0 -376 168.5t-125 490.5zM283 684q0 -67 3 -121t12 -114.5t24.5 -106.5t41.5 -89.5t62 -71.5t87.5 -45 t115.5 -17q338 0 338 559q0 71 -4.5 127.5t-16.5 121t-37 112t-62.5 87.5t-96 61t-134.5 21q-333 0 -333 -524z" />
<glyph unicode="1" horiz-adv-x="663" d="M25 1180v145l462 23v-1348h-163v1194z" />
<glyph unicode="2" horiz-adv-x="1048" d="M63 0v115q99 70 211 174t217 224t173.5 245.5t68.5 218.5q0 109 -66.5 170t-170.5 61q-75 0 -151 -38.5t-132 -100.5l-86 107q61 67 167.5 120.5t233.5 53.5q162 0 267.5 -94t105.5 -261q0 -97 -59.5 -218.5t-154.5 -236.5t-201 -217t-212 -180h691v-143h-902z" />
<glyph unicode="3" horiz-adv-x="1026" d="M63 102l89 134q62 -51 145 -84t170 -33q120 0 207.5 62.5t87.5 170.5q0 69 -36.5 122.5t-103 86.5t-150.5 52t-187 24v111q109 8 200.5 40.5t153 94t61.5 139.5q0 87 -65.5 136.5t-165.5 49.5q-152 0 -274 -98l-70 117q6 5 17.5 13.5t49.5 29.5t79 37t104 29.5t127 13.5 q159 0 262.5 -86.5t103.5 -216.5q0 -125 -86 -211t-229 -121q177 -30 277 -123.5t100 -237.5q0 -56 -15.5 -107.5t-52 -100.5t-90.5 -85.5t-137 -58.5t-186 -22q-122 0 -234 42t-152 80z" />
<glyph unicode="4" horiz-adv-x="1116" d="M51 336v110l633 885h168v-860h201v-135h-201v-334h-162v334h-639zM213 473h477v664z" />
<glyph unicode="5" horiz-adv-x="1030" d="M82 106l82 134q61 -58 140.5 -89.5t162.5 -31.5q121 0 206 68t85 192q0 89 -39 150.5t-117.5 97t-182 50.5t-247.5 15v639h719v-143h-563v-363q303 -4 451.5 -116.5t148.5 -319.5q0 -80 -28.5 -151.5t-84.5 -130t-151.5 -93t-219.5 -34.5q-101 0 -198 35t-164 91z" />
<glyph unicode="6" horiz-adv-x="1112" d="M102 614q0 345 190 539.5t521 194.5q67 0 141 -9v-147q-71 12 -141 12q-109 0 -202.5 -30.5t-167.5 -90.5t-119 -158t-52 -225q168 107 349 107q172 0 282.5 -97.5t110.5 -277.5q0 -206 -118 -329t-327 -123q-467 0 -467 634zM270 559q1 -76 10 -137.5t30.5 -119.5 t56 -97t90.5 -62.5t129 -23.5q89 0 150 42t86.5 105t25.5 140q0 136 -68 198t-215 62q-83 0 -160.5 -30.5t-134.5 -76.5z" />
<glyph unicode="7" horiz-adv-x="970" d="M47 1188v143h893v-98l-575 -1231h-164l557 1186h-711z" />
<glyph unicode="8" horiz-adv-x="1112" d="M98 311q0 69 27.5 128.5t78.5 107t103 81t123 68.5q-135 80 -177 115q-98 81 -108 190q-2 16 -2 33q0 92 59 165.5t155 112t208 38.5q180 0 291 -85t111 -223q0 -170 -303 -329q44 -23 70.5 -38t68 -40.5t67.5 -46.5t57.5 -51t49 -58.5t29.5 -64.5t12 -74 q0 -104 -65 -187.5t-171 -128t-229 -44.5q-117 0 -218.5 36.5t-169 113.5t-67.5 181zM266 326q0 -105 85.5 -162.5t219.5 -57.5q123 0 201 63t78 161q0 45 -23.5 85.5t-77.5 81t-84.5 59.5t-102.5 58q-15 9 -23 13q-58 -30 -99 -56.5t-84.5 -64.5t-66.5 -83.5t-23 -96.5z M305 1044q0 -28 4 -48.5t19 -42.5t29 -37t50 -40.5t63.5 -43t88.5 -54.5q122 75 180 135t58 123q0 93 -68.5 139t-167.5 46q-118 0 -187 -49t-69 -128z" />
<glyph unicode="9" horiz-adv-x="1112" d="M98 897q0 206 118 329.5t327 123.5q465 0 465 -635q0 -344 -189.5 -538.5t-519.5 -194.5q-76 0 -141 8v147q70 -12 141 -12q109 0 202.5 30.5t167 90.5t118 158t51.5 225q-165 -107 -346 -107q-172 0 -283 97.5t-111 277.5zM264 924q0 -136 68 -198t213 -62q85 0 163 30 t134 76q-1 76 -10 137.5t-30.5 119.5t-56 97t-90.5 62.5t-129 23.5q-89 0 -150 -42t-86.5 -104.5t-25.5 -139.5z" />
<glyph unicode=":" horiz-adv-x="567" d="M176 80q0 48 29 74t78 26t78.5 -25t29.5 -75t-28.5 -75t-79.5 -25q-107 0 -107 100zM176 803q0 46 29.5 72t77.5 26t78 -24.5t30 -73.5q0 -50 -29 -76.5t-79 -26.5q-51 0 -79 26t-28 77z" />
<glyph unicode=";" horiz-adv-x="538" d="M80 -254q109 202 115 414h147q-6 -112 -47.5 -228.5t-106.5 -216.5zM166 803q0 46 29 72t77 26q49 0 79 -24.5t30 -73.5q0 -50 -29 -76.5t-80 -26.5q-106 0 -106 103z" />
<glyph unicode="&#x3c;" horiz-adv-x="972" d="M104 535v106l662 471l80 -111l-582 -411l580 -432l-78 -111z" />
<glyph unicode="=" horiz-adv-x="1269" d="M197 346v121h876v-121h-876zM197 754v120h876v-120h-876z" />
<glyph unicode="&#x3e;" horiz-adv-x="972" d="M125 1001l80 111l661 -471v-106l-659 -488l-80 111l582 432z" />
<glyph unicode="?" horiz-adv-x="931" d="M66 1217q72 61 170.5 97t209.5 36q170 0 279 -77.5t109 -207.5q0 -59 -23 -110t-59.5 -88t-81 -70.5t-89 -63.5t-81 -60t-59.5 -67.5t-23 -79.5q0 -45 41 -116l-164 -41q-37 71 -37 159q0 49 22 93.5t57.5 79t78 67.5t85.5 65.5t78.5 65.5t57.5 73.5t22 84.5 q0 75 -66 116t-167 41q-171 0 -285 -114zM293 80q0 49 28 74.5t78 25.5q48 0 78.5 -25t30.5 -75t-29 -75t-80 -25q-106 0 -106 100z" />
<glyph unicode="@" horiz-adv-x="1726" d="M98 416q0 179 62.5 328.5t171 249.5t255 155t312.5 55q168 0 306 -56.5t226 -150t135.5 -210t47.5 -242.5q0 -77 -13 -151t-42.5 -143.5t-72 -122t-106.5 -84.5t-141 -32q-79 0 -134 33t-77 92q-117 -127 -280 -127q-119 0 -192 68t-73 178q0 62 24 109t63 75.5t94 46.5 t109.5 24.5t117.5 6.5q67 0 129 -6l2 123q1 98 -44 139t-128 41q-39 0 -74 -8t-65.5 -35t-30.5 -70q0 -18 6 -45l-131 -16q-12 37 -12 70q0 98 94 159.5t227 61.5q49 0 91 -8t81.5 -28t67 -51t44.5 -80t17 -112l-2 -450q0 -45 30 -72t75 -27q101 0 167 118t66 313 q0 118 -42 222.5t-118.5 183t-191.5 124t-254 45.5q-146 0 -269.5 -45.5t-216.5 -131.5t-145.5 -220.5t-52.5 -302.5q0 -201 87.5 -352t239 -229.5t345.5 -78.5q257 0 483 160l49 -78q-119 -86 -260 -131t-285 -45q-119 0 -230.5 29t-210 90.5t-172 149.5t-116.5 214.5 t-43 276.5zM635 272q0 -71 43.5 -108t116.5 -37q62 0 123 34t102 81v172q-62 10 -135 10q-250 0 -250 -152z" />
<glyph unicode="A" horiz-adv-x="1185" d="M27 0l477 1331h176l479 -1331h-176l-123 352h-545l-120 -352h-168zM362 489h449l-129 373l-96 301l-94 -303z" />
<glyph unicode="B" horiz-adv-x="1179" d="M184 0v1331h396q211 0 306 -84.5t95 -245.5q0 -93 -50 -170t-153 -116v-4q84 -14 144.5 -47.5t93 -80t47 -96t14.5 -106.5q0 -185 -113 -283t-341 -98h-439zM350 145h254q158 0 228.5 55.5t70.5 180.5q0 242 -321 242h-232v-478zM350 758h197q117 0 188.5 60.5 t71.5 164.5q0 103 -61 153t-189 50h-207v-428z" />
<glyph unicode="C" horiz-adv-x="1181" d="M109 655q0 329 173 512t463 183q99 0 190.5 -22t151.5 -58l-57 -160q-57 45 -133.5 70.5t-155.5 25.5q-225 0 -340.5 -141.5t-115.5 -405.5q0 -536 452 -536q95 0 183.5 25t138.5 59l45 -144q-151 -83 -379 -83q-291 0 -453.5 164.5t-162.5 510.5z" />
<glyph unicode="D" horiz-adv-x="1374" d="M184 0v1331h463q136 0 243 -35.5t176 -95t114 -144t63.5 -177t18.5 -199.5q0 -121 -16.5 -217.5t-59.5 -185.5t-112.5 -148t-180.5 -94t-258 -35h-451zM350 145h303q108 0 186.5 27t124.5 70.5t73.5 112.5t36.5 139.5t9 164.5q0 86 -12 159t-42.5 142.5t-78.5 118 t-126 78t-179 29.5h-295v-1041z" />
<glyph unicode="E" horiz-adv-x="1089" d="M184 0v1331h785v-145h-619v-432h551v-142h-551v-467h619v-145h-785z" />
<glyph unicode="F" horiz-adv-x="1030" d="M184 0v1331h766v-145h-600v-488h535v-143h-535v-555h-166z" />
<glyph unicode="G" horiz-adv-x="1280" d="M106 657q0 139 33.5 254t92.5 195.5t141.5 136t180 81.5t208.5 26q211 0 368 -86l-57 -162q-62 48 -146 76t-167 28q-475 0 -475 -544q0 -539 473 -539q120 0 231 51v485h164v-550q-77 -53 -190.5 -91t-227.5 -38q-106 0 -197 21.5t-172 72t-137.5 127t-89.5 193 t-33 263.5z" />
<glyph unicode="H" horiz-adv-x="1357" d="M184 0v1331h166v-571h658v571h166v-1331h-166v610h-658v-610h-166z" />
<glyph unicode="I" horiz-adv-x="536" d="M184 0v1331h166v-1331h-166z" />
<glyph unicode="J" horiz-adv-x="536" d="M-49 -184q117 34 176 102t59 205v1208h166v-1222q0 -166 -90.5 -280t-259.5 -153z" />
<glyph unicode="K" horiz-adv-x="1157" d="M184 0v1331h166v-614l101 28l454 586h191l-516 -647l567 -684h-207l-500 602l-90 -20v-582h-166z" />
<glyph unicode="L" horiz-adv-x="952" d="M184 0v1331h166v-1186h574v-145h-740z" />
<glyph unicode="M" horiz-adv-x="1681" d="M184 0v1331h189l315 -747l162 -424l156 415l307 756h184v-1331h-156v1047l-118 -330l-289 -717h-174l-289 682l-133 342v-1024h-154z" />
<glyph unicode="N" horiz-adv-x="1439" d="M184 0v1331h174l533 -764l209 -311l-2 258v817h157v-1331h-165l-535 768l-213 319l2 -294v-793h-160z" />
<glyph unicode="O" d="M111 659q0 201 71.5 356.5t211 245t327.5 89.5q291 0 447.5 -179t156.5 -507q0 -198 -74.5 -353t-215 -243t-324.5 -88q-291 0 -445.5 179.5t-154.5 499.5zM287 659q0 -260 101 -398t323 -138q215 0 325.5 144.5t110.5 396.5q0 542 -426 542q-434 0 -434 -547z" />
<glyph unicode="P" horiz-adv-x="1112" d="M184 0v1331h394q245 0 354.5 -109t109.5 -317q0 -202 -123 -318t-327 -116h-242v-471h-166zM350 612h232q132 0 208 68t76 217q0 148 -69 218.5t-224 70.5h-223v-574z" />
<glyph unicode="Q" d="M111 659q0 201 71.5 356.5t211 245t327.5 89.5q291 0 447.5 -179t156.5 -507q0 -218 -91.5 -383.5t-254.5 -243.5l340 -354l-143 -99l-334 410q-72 -14 -131 -14q-291 0 -445.5 179.5t-154.5 499.5zM287 659q0 -260 101 -398t323 -138q215 0 325.5 144.5t110.5 396.5 q0 542 -426 542q-434 0 -434 -547z" />
<glyph unicode="R" horiz-adv-x="1181" d="M184 0v1331h381q247 0 357 -101t110 -306q0 -136 -65 -233t-181 -140l326 -551h-197l-294 516h-271v-516h-166zM350 659h219q287 0 287 259q0 146 -68.5 207t-226.5 61h-211v-527z" />
<glyph unicode="S" horiz-adv-x="1028" d="M94 94l56 164q63 -55 157 -96t180 -41q111 0 192 55t81 154q0 69 -35.5 121t-92 85.5t-124.5 62.5t-136.5 62t-125 74t-92 108.5t-35.5 155.5q0 155 117 253t292 98q201 0 355 -90l-52 -164q-49 45 -130 77.5t-162 32.5q-114 0 -180 -51.5t-66 -140.5q0 -50 22 -89.5 t59 -67.5t85.5 -52t101.5 -46t106.5 -46.5t102 -57.5t85.5 -74t59 -101t22 -134q0 -161 -130 -263.5t-321 -102.5q-206 0 -391 114z" />
<glyph unicode="T" horiz-adv-x="1052" d="M29 1186v145h995v-145h-414v-1186h-166v1186h-415z" />
<glyph unicode="U" horiz-adv-x="1378" d="M170 481v850h166v-831q0 -143 38.5 -226.5t114 -118t201.5 -34.5q187 0 270.5 91.5t83.5 301.5v817h164v-833q0 -242 -127.5 -380t-394.5 -138q-272 0 -394 126t-122 375z" />
<glyph unicode="V" horiz-adv-x="1167" d="M20 1331h173l309 -854l94 -323l92 321l281 856h168l-453 -1331h-184z" />
<glyph unicode="W" horiz-adv-x="1751" d="M53 1331h170l197 -817l72 -358l79 354l215 803h189l225 -803l82 -354l70 360l172 815h159l-307 -1331h-198l-209 731l-97 393l-90 -397l-196 -727h-195z" />
<glyph unicode="X" horiz-adv-x="1140" d="M35 0l444 692l-407 639h188l318 -510l319 510h166l-404 -631l451 -700h-186l-359 571l-360 -571h-170z" />
<glyph unicode="Y" horiz-adv-x="1064" d="M6 1331h178l185 -338l178 -344l164 342l170 340h166l-422 -817v-514h-166v514z" />
<glyph unicode="Z" horiz-adv-x="1083" d="M74 0v117l499 751l220 318h-680v145h868v-127l-492 -739l-221 -320h731v-145h-925z" />
<glyph unicode="[" horiz-adv-x="636" d="M160 -375v1850h407v-119h-260v-1616h260v-115h-407z" />
<glyph unicode="\" horiz-adv-x="905" d="M68 1403h133l637 -1509h-136z" />
<glyph unicode="]" horiz-adv-x="636" d="M70 -260h260v1616h-260v119h407v-1850h-407v115z" />
<glyph unicode="^" horiz-adv-x="1032" d="M57 727l400 606h116l400 -606h-150l-313 477l-309 -477h-144z" />
<glyph unicode="_" horiz-adv-x="1239" d="M70 -94h1101v-115h-1101v115z" />
<glyph unicode="`" horiz-adv-x="921" d="M295 1360l100 108l262 -274l-67 -70z" />
<glyph unicode="a" horiz-adv-x="1021" d="M86 252q0 85 38 144.5t105 90t140 43.5t161 13q54 0 148 -8l2 135q0 111 -48.5 155.5t-142.5 44.5q-27 0 -53.5 -4t-57 -15.5t-48.5 -30.5q-16 -20 -26 -50q-4 -12 -4 -26q0 -22 9 -48l-147 -18q-12 41 -12 76q0 110 103.5 178.5t252.5 68.5q54 0 100.5 -9t90.5 -31 t75.5 -56.5t49.5 -89.5q18 -52 18 -118v-7l-2 -473q0 -72 30 -94q18 -13 42 -13q15 0 32 5l12 -121q-49 -14 -94 -14q-73 0 -117 37t-55 102q-128 -139 -311 -139q-131 0 -211 74.5t-80 197.5zM254 268q0 -77 48 -118t128 -41q68 0 136.5 37.5t111.5 89.5v190 q-86 12 -148 12q-55 0 -101 -8t-87 -26t-64.5 -53t-23.5 -83z" />
<glyph unicode="b" horiz-adv-x="1118" d="M150 59v1344h161v-520q146 118 310 118q192 0 297.5 -133t105.5 -358q0 -243 -140 -386.5t-372 -143.5q-184 0 -362 79zM311 158q85 -43 195 -43q164 0 255 100.5t91 280.5q0 178 -74 270t-200 92q-133 0 -267 -110v-590z" />
<glyph unicode="c" horiz-adv-x="937" d="M96 475q0 250 133 388t344 138q159 0 283 -65l-51 -152q-110 80 -230 80q-149 0 -228 -100t-79 -287q0 -171 82.5 -266.5t233.5 -95.5q63 0 123 24t102 60l45 -138q-61 -39 -143 -60t-160 -21q-209 0 -332 129.5t-123 365.5z" />
<glyph unicode="d" horiz-adv-x="1126" d="M96 471q0 243 137 386.5t365 143.5q94 0 209 -32v434h164v-1403h-154l-2 121q-155 -141 -315 -141q-193 0 -298.5 132.5t-105.5 358.5zM266 485q0 -178 75 -270t200 -92q131 0 266 125v563q-83 55 -203 55q-161 0 -249.5 -100.5t-88.5 -280.5z" />
<glyph unicode="e" horiz-adv-x="1017" d="M98 492q0 236 123 372.5t311 136.5q386 0 386 -473v-61h-652q6 -177 90.5 -265.5t239.5 -88.5q75 0 145 30.5t117 69.5l45 -135q-158 -98 -342 -98q-213 0 -338 128.5t-125 383.5zM270 580h484v22q0 124 -52 195q-57 77 -172 77q-236 0 -260 -294z" />
<glyph unicode="f" horiz-adv-x="700" d="M57 840v114l160 11v77q3 195 94 288t248 93q112 0 199 -37l-35 -149q-80 53 -160 53q-97 0 -140.5 -60.5t-43.5 -185.5v-79h291v-125h-291v-840h-162v840h-160z" />
<glyph unicode="g" horiz-adv-x="1073" d="M49 -207q0 85 58.5 153t168.5 111q-73 41 -73 117q0 95 172 162q-139 29 -215 114.5t-76 202.5q0 149 117.5 248.5t294.5 99.5q55 0 160.5 -18.5t230.5 -19.5h149v-115h-184q63 -72 63 -180q0 -129 -99 -224t-253 -114q-215 -65 -215 -117q0 -39 61 -53t193 -21 q76 -5 129 -11.5t111 -23t93 -41t58 -66t23 -97.5q0 -67 -36 -131.5t-100 -116.5t-164 -83.5t-218 -31.5q-125 0 -223.5 26t-162 85.5t-63.5 144.5zM205 -172q0 -59 44.5 -98.5t112 -55.5t154.5 -16q149 0 240.5 62.5t91.5 154.5q0 68 -67.5 98t-192.5 37q-113 3 -193 15 q-190 -70 -190 -197zM248 657q0 -57 22.5 -101.5t59.5 -70t79.5 -38.5t86.5 -13q96 0 175 61t79 167q0 109 -71.5 165t-182.5 56q-105 0 -176.5 -57.5t-71.5 -168.5z" />
<glyph unicode="h" horiz-adv-x="1128" d="M156 0v1403h163v-533q159 131 326 131q51 0 95.5 -8.5t90.5 -31.5t78.5 -60t53 -98t20.5 -141v-662h-164v602q0 141 -51 196.5t-160 55.5q-145 0 -289 -117v-737h-163z" />
<glyph unicode="i" horiz-adv-x="475" d="M139 1311q0 43 29 72.5t72 29.5t73.5 -29.5t30.5 -72.5t-30.5 -73t-73.5 -30t-72 30t-29 73zM156 0v977h163v-977h-163z" />
<glyph unicode="j" horiz-adv-x="475" d="M-137 -319q293 8 293 299v997h163v-1006q0 -96 -28.5 -173.5t-73 -124.5t-103.5 -78.5t-115 -42.5q-52 -11 -103 -11h-9zM139 1311q0 43 29 72.5t72 29.5t73.5 -29.5t30.5 -72.5t-30.5 -73t-73.5 -30t-72 30t-29 73z" />
<glyph unicode="k" horiz-adv-x="985" d="M156 0v1403h163v-858l62 16l338 416h186l-383 -457l447 -520h-207l-369 434l-74 -14v-420h-163z" />
<glyph unicode="l" horiz-adv-x="475" d="M156 0v1403h163v-1403h-163z" />
<glyph unicode="m" horiz-adv-x="1753" d="M156 0v977h153l2 -113q151 137 316 137q220 0 297 -155q162 155 344 155q51 0 96 -8.5t91 -31.5t78.5 -60t53.5 -98t21 -141v-662h-162v602q0 141 -52.5 197.5t-162.5 56.5q-122 0 -275 -123q7 -40 7 -71v-662h-162v602q0 141 -51.5 197.5t-159.5 56.5 q-63 0 -135.5 -32.5t-135.5 -86.5v-737h-163z" />
<glyph unicode="n" horiz-adv-x="1128" d="M156 0v977h153l2 -113q156 137 334 137q51 0 95.5 -8.5t90.5 -31.5t78.5 -60t53 -98t20.5 -141v-662h-164v602q0 141 -51 197.5t-160 56.5q-143 0 -289 -119v-737h-163z" />
<glyph unicode="o" horiz-adv-x="1122" d="M96 492q0 225 125.5 367t337.5 142q223 0 344 -134t121 -375q0 -139 -51 -253.5t-158 -186.5t-254 -72q-220 0 -342.5 133t-122.5 379zM268 492q0 -379 289 -379q82 0 141 27.5t92.5 79.5t48.5 119t15 153q0 81 -15 146t-48.5 118t-92.5 82.5t-141 29.5q-79 0 -136.5 -29 t-90 -81.5t-47.5 -118t-15 -147.5z" />
<glyph unicode="p" horiz-adv-x="1126" d="M156 -451v1428h151l4 -117q159 141 316 141q193 0 298 -132.5t105 -358.5q0 -243 -139 -386.5t-367 -143.5q-88 0 -205 30v-461h-163zM319 166q81 -51 199 -51q161 0 250.5 100.5t89.5 280.5q0 178 -74 270t-198 92q-129 0 -267 -125v-567z" />
<glyph unicode="q" horiz-adv-x="1118" d="M94 471q0 244 140.5 387t371.5 143q186 0 363 -83v-1369h-162v564q-150 -133 -309 -133q-192 0 -298 133t-106 358zM268 485q0 -179 73.5 -270.5t199.5 -91.5q128 0 266 125v571q-91 47 -203 47q-161 0 -248.5 -100t-87.5 -281z" />
<glyph unicode="r" horiz-adv-x="708" d="M156 0v977h151l4 -172q62 92 139.5 137t157.5 45q45 0 68 -2l-12 -166q-38 12 -78 12q-140 0 -267 -155v-676h-163z" />
<glyph unicode="s" horiz-adv-x="864" d="M86 61l47 150q40 -38 113.5 -69t146.5 -31q217 0 217 147q0 45 -27.5 78.5t-72 55.5t-98 41.5t-106.5 43t-97.5 53.5t-72 80.5t-27.5 116.5q0 70 32 125t83 86.5t107.5 47t112.5 15.5q172 0 299 -73l-47 -148q-30 34 -95 62t-150 28q-66 0 -122.5 -33t-56.5 -104 q0 -37 28 -66t72 -50t98 -41t108 -46t98 -58.5t72 -84t28 -117.5q0 -63 -22 -114t-58.5 -83t-86.5 -53.5t-103 -30.5t-111 -9q-82 0 -164.5 22.5t-144.5 58.5z" />
<glyph unicode="t" horiz-adv-x="778" d="M53 840v116l152 11l20 264h140v-266h335v-125h-335v-508q1 -121 43 -168t129 -47q98 0 174 65l37 -137q-118 -65 -254 -65q-141 0 -216 75.5t-75 257.5v527h-150z" />
<glyph unicode="u" horiz-adv-x="1124" d="M145 317v660h164v-606q0 -142 51 -198t158 -56q134 0 287 125v735h162v-977h-150l-4 115q-160 -138 -328 -138q-51 0 -95.5 8t-91 30.5t-79 59t-53.5 98.5t-21 144z" />
<glyph unicode="v" horiz-adv-x="999" d="M31 977h170l221 -590l82 -254l82 256l215 588h170l-375 -977h-201z" />
<glyph unicode="w" horiz-adv-x="1562" d="M47 977h168l154 -561l65 -277l84 279l184 559h172l191 -596l68 -242l57 246l160 592h166l-289 -977h-197l-176 532l-72 271l-77 -275l-185 -528h-192z" />
<glyph unicode="x" horiz-adv-x="954" d="M37 0l352 514l-309 463h176l225 -346l228 346h168l-312 -455l350 -522h-178l-264 408l-270 -408h-166z" />
<glyph unicode="y" horiz-adv-x="995" d="M29 977h170l207 -533l102 -278l98 276l201 535h160l-553 -1428h-156l160 422z" />
<glyph unicode="z" horiz-adv-x="944" d="M76 0v98l557 744h-524v135h737v-98l-563 -746h579v-133h-786z" />
<glyph unicode="{" horiz-adv-x="712" d="M74 494v110q37 0 47 2q137 10 137 123v430q0 58 6 100.5t25.5 87t53 72.5t92.5 46t140 18h70v-107h-65q-64 0 -101.5 -11.5t-56.5 -41t-24 -64.5t-5 -98v-315q0 -64 -6 -109.5t-22.5 -85t-47 -64t-77.5 -36.5q87 -19 120 -92t33 -201v-319q0 -52 2.5 -81t12 -58.5 t29 -43.5t53.5 -23t85 -9h70v-107h-74q-81 0 -138.5 16.5t-91 43t-52.5 70.5t-25 88t-6 106v428q0 61 -33 89.5t-100 33.5q-10 2 -51 2z" />
<glyph unicode="|" horiz-adv-x="501" d="M182 -10v1413h137v-1413h-137z" />
<glyph unicode="}" horiz-adv-x="712" d="M70 -276h67q51 0 85 8.5t54 23t30 44t13 59t3 80.5v319q0 129 32.5 201.5t120.5 91.5q-47 12 -78 36.5t-47 64t-22 84.5t-6 110v315q0 63 -5.5 98t-24.5 64.5t-57 41t-102 11.5h-63v107h69q80 0 138.5 -18t92 -46t53.5 -72.5t26 -87.5t6 -100v-430q0 -63 38 -91.5 t113 -33.5h33v-110h-35q-75 -3 -112 -32t-37 -93v-428q0 -51 -4 -89t-15 -77.5t-33.5 -66t-56 -48.5t-85.5 -32.5t-120 -10.5h-71v107z" />
<glyph unicode="~" horiz-adv-x="1249" d="M78 541q76 118 153 164.5t160 46.5q66 0 138.5 -28t124.5 -61.5t110 -61.5t100 -28q61 0 109.5 45.5t105.5 143.5l92 -68q-79 -135 -157 -188t-170 -53q-48 0 -98 18.5t-92.5 45.5l-85 54t-92 45.5t-97.5 18.5q-56 0 -106.5 -40t-106.5 -120z" />
<glyph unicode="&#xa1;" horiz-adv-x="485" d="M131 842q0 49 30 74.5t79 25.5q106 0 106 -100q0 -49 -28 -75t-78 -26q-47 0 -78 25.5t-31 75.5zM164 53l16 459h121l18 -461v-461h-155v463z" />
<glyph unicode="&#xa2;" horiz-adv-x="954" d="M102 475q0 225 109 359.5t289 160.5v166h110v-160q136 -5 252 -65l-51 -152q-102 73 -201 78v-747q119 9 205 84l45 -138q-101 -65 -250 -79v-132h-110v134q-185 18 -291.5 145t-106.5 346zM274 477q0 -144 58.5 -235t167.5 -117v729q-110 -26 -168 -122.5t-58 -254.5z " />
<glyph unicode="&#xa3;" horiz-adv-x="1234" d="M96 0v109q93 11 150 94.5t57 179.5v221h-180v119h180v158q0 119 35 211t96.5 147t139.5 83t169 28q188 0 318 -119l-84 -121q-57 59 -111.5 81.5t-124.5 22.5q-135 0 -205.5 -76t-70.5 -253v-162h479v-119h-479v-135q0 -114 -32 -192t-118 -138h486q115 0 176 34t102 97 l86 -108q-34 -63 -112 -112.5t-193 -49.5h-764z" />
<glyph unicode="&#xa4;" horiz-adv-x="1083" d="M78 141l213 213q-62 83 -62 183q0 101 62 178q-12 10 -108 107t-105 108l67 69l215 -215q88 58 179 58q94 0 182 -58l217 215l68 -69l-218 -215q62 -74 62 -178q0 -101 -62 -181l218 -215l-72 -59l-213 209q-78 -60 -180 -60q-93 0 -181 58l-210 -209zM358 537 q0 -84 52.5 -139.5t130.5 -55.5q79 0 130.5 56t51.5 139q0 86 -50 138t-132 52q-81 0 -132 -51.5t-51 -138.5z" />
<glyph unicode="&#xa5;" horiz-adv-x="1173" d="M66 1331h178l184 -338l178 -344l164 342l170 340h166l-375 -725h283v-117h-330v-184h330v-117h-330v-188h-166v188h-325v117h325v184h-325v117h274z" />
<glyph unicode="&#xa6;" horiz-adv-x="552" d="M209 -10v606h137v-606h-137zM209 827v576h137v-576h-137z" />
<glyph unicode="&#xa7;" horiz-adv-x="1128" d="M70 -406l6 156q111 -72 215 -72q67 0 121.5 16.5t93 59t39.5 107.5q0 62 -37.5 169t-91.5 223.5t-107.5 233.5t-91 224.5t-37.5 169.5q1 89 43 167.5t109.5 132.5t152 93t169.5 57.5t163 18.5q119 0 238 -29l-6 -158q-59 38 -133 63t-134 25q-83 0 -125.5 -48t-42.5 -132 q0 -68 56 -217t123.5 -293.5t123.5 -293.5t56 -218q0 -67 -26 -128.5t-70 -109t-102.5 -87.5t-123 -68t-131.5 -48t-128 -29t-113 -9q-121 0 -209 24zM305 911q0 -66 37 -170.5t89 -216.5t104.5 -224.5t89.5 -222.5t37 -183q0 -80 -35 -127q117 51 171 115t54 153 q0 66 -36.5 172t-88 219.5t-103 228t-88 226.5t-36.5 186q0 77 49 137q-114 -50 -179 -133t-65 -160z" />
<glyph unicode="&#xa8;" horiz-adv-x="921" d="M182 1282q0 40 27 68t67 28q41 0 69 -28t28 -68t-28 -67t-69 -27q-40 0 -67 27t-27 67zM541 1282q0 40 27 68t67 28t68 -28t28 -68t-28 -67t-68 -27t-67 27t-27 67z" />
<glyph unicode="&#xa9;" horiz-adv-x="1499" d="M104 641q0 134 51 256t137 209.5t204 139.5t247 52q177 0 326.5 -87.5t236.5 -238.5t87 -331q0 -133 -50.5 -254t-137 -209t-207.5 -140t-255 -52q-129 0 -247 52t-204 140t-137 209t-51 254zM193 641q0 -125 44.5 -234t119 -184t175.5 -118.5t211 -43.5q117 0 221 44 t179.5 120.5t119.5 184.5t44 231q0 156 -74.5 289.5t-204.5 212t-285 78.5q-113 0 -214.5 -44t-175 -120t-117 -184t-43.5 -232zM356 637q0 202 118 311t317 109q145 0 235 -49l-39 -109q-84 62 -199 62q-148 0 -226.5 -82.5t-78.5 -239.5q0 -159 78.5 -237t224.5 -78 q63 0 124.5 16t97.5 37l30 -101q-110 -49 -260 -49q-199 0 -310.5 100t-111.5 310z" />
<glyph unicode="&#xaa;" horiz-adv-x="919" d="M90 764q0 66 33.5 113t91 72t121.5 35.5t139 10.5q30 0 84 -4q27 0 33 -2l2 103q0 147 -160 147q-24 0 -48.5 -4t-49.5 -14t-40.5 -29t-16.5 -45q0 -16 6 -37l-127 -16q-13 30 -13 61q-1 87 87 141t214 54q57 0 105.5 -12t91.5 -39t68 -76t26 -117l-2 -371q0 -82 47 -82 q11 0 35 4l10 -96q-55 -10 -84 -10q-58 0 -94 27.5t-47 74.5q-112 -102 -262 -102q-111 0 -180.5 58.5t-69.5 154.5zM240 782q0 -123 143 -123q57 0 114 26.5t95 64.5v155q-78 10 -129 10q-98 -2 -160.5 -33t-62.5 -100z" />
<glyph unicode="&#xab;" horiz-adv-x="946" d="M68 479l256 473h141l-227 -465l227 -481h-141zM471 479l256 473h143l-227 -465l227 -481h-143z" />
<glyph unicode="&#xac;" horiz-adv-x="1484" d="M119 553v113h1220v-543h-127v430h-1093z" />
<glyph unicode="&#xad;" horiz-adv-x="874" d="M174 455v143h526v-143h-526z" />
<glyph unicode="&#xae;" horiz-adv-x="1202" d="M109 846q0 137 66 253t178.5 183.5t244.5 67.5q135 0 249 -67.5t180.5 -183.5t66.5 -253q0 -210 -145 -356t-351 -146q-132 0 -244.5 67.5t-178.5 183t-66 251.5zM186 846q0 -191 119.5 -312.5t292.5 -121.5q181 0 299.5 121.5t118.5 312.5q0 180 -120 307t-298 127 q-177 0 -294.5 -122t-117.5 -312zM395 522v664h207q129 0 186.5 -53.5t57.5 -157.5q0 -75 -37.5 -126.5t-101.5 -72.5l137 -254h-113l-123 240h-110v-240h-103zM498 838h102q66 0 102.5 30.5t36.5 102.5q0 75 -32.5 105t-110.5 30h-98v-268z" />
<glyph unicode="&#xaf;" horiz-adv-x="921" d="M209 1225v116h504v-116h-504z" />
<glyph unicode="&#xb0;" horiz-adv-x="743" d="M84 1079q0 120 81 195.5t210 75.5t206.5 -73.5t77.5 -197.5t-77.5 -199t-206.5 -75q-133 0 -212 74.5t-79 199.5zM190 1079q0 -83 50 -134.5t135 -51.5q83 0 128.5 51.5t45.5 134.5q0 80 -46.5 130.5t-127.5 50.5q-87 0 -136 -50t-49 -131z" />
<glyph unicode="&#xb1;" horiz-adv-x="1069" d="M113 8v117h843v-117h-843zM113 557v119h354v313h133v-313h356v-119h-356v-307h-133v307h-354z" />
<glyph unicode="&#xb2;" horiz-adv-x="624" d="M47 778v80q53 37 112.5 91t116 116t93.5 126.5t37 111.5q0 51 -31.5 78.5t-77.5 27.5q-36 0 -79 -25t-75 -59l-67 76q38 42 100 76t139 34q96 0 159 -53t63 -147q0 -93 -93 -212t-217 -218h344v-103h-524z" />
<glyph unicode="&#xb3;" horiz-adv-x="612" d="M41 844l65 92q34 -29 80 -48.5t90 -19.5q57 0 99.5 30t42.5 81q0 121 -248 135v78q90 6 152.5 41.5t62.5 89.5q0 38 -31.5 61t-77.5 23q-78 0 -149 -57l-55 86q4 3 11 8t31 18t49 23t62 18t74 8q94 0 155.5 -49.5t61.5 -122.5q0 -118 -131 -172q79 -22 121.5 -71 t42.5 -119q0 -85 -68 -147t-209 -62q-71 0 -138 26t-93 50z" />
<glyph unicode="&#xb4;" horiz-adv-x="921" d="M295 1194l264 274l98 -108l-295 -236z" />
<glyph unicode="&#xb5;" horiz-adv-x="1122" d="M137 -451v1430h162v-608q0 -142 51 -198t158 -56q134 0 287 125v737h161v-979h-149l-4 115q-157 -138 -326 -138q-145 0 -211 66q33 -95 33 -227v-267h-162z" />
<glyph unicode="&#xb6;" horiz-adv-x="1130" d="M70 823q0 79 22.5 152t70 138t116.5 113.5t168 76.5t217 28v-1782h-142v777q-214 54 -333 184t-119 313zM829 -451v1782h142v-1782h-142z" />
<glyph unicode="&#xb7;" horiz-adv-x="483" d="M137 602q0 44 29.5 72t75.5 28q45 0 75.5 -27.5t30.5 -72.5q0 -48 -30 -75t-76 -27q-47 0 -76 27t-29 75z" />
<glyph unicode="&#xb8;" horiz-adv-x="921" d="M260 -418l43 107q20 -23 57 -39.5t76 -16.5q51 0 78 21t27 55q0 45 -45 74t-131 33l59 209h98l-39 -142q91 -14 139 -63t48 -113q0 -74 -66 -124t-166 -50q-102 0 -178 49z" />
<glyph unicode="&#xb9;" horiz-adv-x="423" d="M27 1393v104l290 14v-733h-131v623z" />
<glyph unicode="&#xba;" horiz-adv-x="960" d="M88 952q0 176 106 287t285 111q189 0 292 -104.5t103 -293.5q0 -169 -104.5 -285t-290.5 -116t-288.5 104.5t-102.5 296.5zM240 952q0 -142 54.5 -215t184.5 -73q133 0 187.5 74t54.5 214q0 285 -242 285q-131 0 -185 -75t-54 -210z" />
<glyph unicode="&#xbb;" horiz-adv-x="946" d="M78 6l227 481l-227 465h141l256 -473l-256 -473h-141zM481 6l228 481l-228 465h142l256 -473l-256 -473h-142z" />
<glyph unicode="&#xbc;" horiz-adv-x="1525" d="M68 1237v104l290 15v-733h-131v622zM266 139l951 1151l77 -65l-948 -1145zM864 176v74l346 473h125v-449h107v-98h-107v-174h-129v174h-342zM993 274h213v293z" />
<glyph unicode="&#xbd;" horiz-adv-x="1609" d="M68 1237v104l290 15v-733h-131v622zM266 139l951 1151l77 -65l-948 -1145zM995 0v80q122 87 240.5 220.5t118.5 223.5q0 51 -31.5 79t-77.5 28q-36 0 -78.5 -25t-74.5 -59l-68 76q38 42 100.5 76t139.5 34q96 0 158.5 -53.5t62.5 -147.5q0 -93 -93 -212t-216 -218h344 v-102h-525z" />
<glyph unicode="&#xbe;" horiz-adv-x="1624" d="M88 688l66 92q34 -29 80 -48t90 -19q57 0 99 29.5t42 80.5q0 121 -248 135v78q90 6 152.5 41.5t62.5 89.5q0 39 -31 61.5t-77 22.5q-79 0 -150 -57l-55 86q11 9 30.5 21.5t79 33.5t117.5 21q94 0 155.5 -49.5t61.5 -122.5q0 -118 -131 -172q78 -22 121 -71.5t43 -119.5 q0 -85 -68 -147t-209 -62q-71 0 -138 26t-93 50zM367 139l950 1151l78 -65l-949 -1145zM963 176v74l346 473h125v-449h106v-98h-106v-174h-129v174h-342zM1092 274h213v293z" />
<glyph unicode="&#xbf;" horiz-adv-x="905" d="M68 -141q0 59 23 110t59.5 88t80.5 70.5t88.5 63t81 59.5t59.5 67.5t23 79.5q0 46 -41 117l164 41q37 -71 37 -160q0 -49 -22 -93t-57.5 -79t-78.5 -68t-85.5 -65t-78 -65t-57.5 -73.5t-22 -84.5q0 -75 66 -116.5t167 -41.5q170 0 285 115l76 -117q-72 -61 -170.5 -97 t-210.5 -36q-170 0 -278.5 77.5t-108.5 207.5zM393 844q0 50 29 75t80 25q106 0 106 -100q0 -49 -28 -75t-78 -26q-47 0 -78 25.5t-31 75.5z" />
<glyph unicode="&#xc0;" horiz-adv-x="1185" d="M27 0l477 1331h176l479 -1331h-176l-123 352h-545l-120 -352h-168zM305 1589l70 135l334 -217l-47 -84zM362 489h449l-129 373l-96 301l-94 -303z" />
<glyph unicode="&#xc1;" horiz-adv-x="1185" d="M27 0l477 1331h176l479 -1331h-176l-123 352h-545l-120 -352h-168zM362 489h449l-129 373l-96 301l-94 -303zM463 1507l334 217l69 -135l-356 -166z" />
<glyph unicode="&#xc2;" horiz-adv-x="1185" d="M27 0l477 1331h176l479 -1331h-176l-123 352h-545l-120 -352h-168zM305 1528l248 203h88l246 -199l-72 -90l-223 168l-219 -168zM362 489h449l-129 373l-96 301l-94 -303z" />
<glyph unicode="&#xc3;" horiz-adv-x="1185" d="M27 0l477 1331h176l479 -1331h-176l-123 352h-545l-120 -352h-168zM260 1546q94 127 199 127q55 0 138 -29.5t122 -29.5q80 0 133 65l55 -63q-87 -125 -196 -125q-43 0 -128 31.5t-126 31.5q-83 0 -140 -67zM362 489h449l-129 373l-96 301l-94 -303z" />
<glyph unicode="&#xc4;" horiz-adv-x="1185" d="M27 0l477 1331h176l479 -1331h-176l-123 352h-545l-120 -352h-168zM305 1585q0 40 27 68t67 28t68.5 -28t28.5 -68q0 -39 -28.5 -66.5t-68.5 -27.5t-67 27t-27 67zM362 489h449l-129 373l-96 301l-94 -303zM674 1585q0 40 27 68t67 28t68 -28t28 -68t-28 -67t-68 -27 t-67 27t-27 67z" />
<glyph unicode="&#xc5;" horiz-adv-x="1185" d="M27 0l477 1331h176l479 -1331h-176l-123 352h-545l-120 -352h-168zM362 489h449l-129 373l-96 301l-94 -303zM377 1606q0 90 62 144t153 54q92 0 149.5 -52t57.5 -146q0 -85 -59 -143t-152 -58q-94 0 -152.5 56t-58.5 145zM477 1606q0 -56 29 -85.5t82 -29.5 q108 0 108 115q0 116 -108 116q-111 0 -111 -116z" />
<glyph unicode="&#xc6;" horiz-adv-x="1699" d="M6 0l731 1331h844v-145h-618v-432h548v-142h-548v-467h618v-145h-784v352h-437l-188 -352h-166zM434 487h363v672z" />
<glyph unicode="&#xc7;" horiz-adv-x="1181" d="M109 655q0 329 173 512t463 183q99 0 190.5 -22t151.5 -58l-57 -160q-57 45 -133.5 70.5t-155.5 25.5q-225 0 -340.5 -141.5t-115.5 -405.5q0 -536 452 -536q95 0 183.5 25t138.5 59l45 -144q-136 -77 -354 -83l-27 -97q91 -14 138.5 -63t47.5 -113q0 -74 -65.5 -124 t-165.5 -50q-102 0 -178 49l43 107q20 -23 57 -39.5t76 -16.5q51 0 77.5 21t26.5 55q0 45 -45 74t-131 33l47 166q-258 20 -400 185t-142 488z" />
<glyph unicode="&#xc8;" horiz-adv-x="1089" d="M184 0v1331h785v-145h-619v-432h551v-142h-551v-467h619v-145h-785zM350 1589l70 135l334 -217l-47 -84z" />
<glyph unicode="&#xc9;" horiz-adv-x="1089" d="M184 0v1331h785v-145h-619v-432h551v-142h-551v-467h619v-145h-785zM420 1507l334 217l69 -135l-356 -166z" />
<glyph unicode="&#xca;" horiz-adv-x="1089" d="M184 0v1331h785v-145h-619v-432h551v-142h-551v-467h619v-145h-785zM297 1528l248 203h88l246 -199l-72 -90l-223 168l-219 -168z" />
<glyph unicode="&#xcb;" horiz-adv-x="1089" d="M184 0v1331h785v-145h-619v-432h551v-142h-551v-467h619v-145h-785zM307 1585q0 40 27 68t67 28t68.5 -28t28.5 -68q0 -39 -28.5 -66.5t-68.5 -27.5t-67 27t-27 67zM676 1585q0 40 27 68t67 28t68 -28t28 -68t-28 -67t-68 -27t-67 27t-27 67z" />
<glyph unicode="&#xcc;" horiz-adv-x="536" d="M-18 1589l69 135l334 -217l-47 -84zM184 0v1331h166v-1331h-166z" />
<glyph unicode="&#xcd;" horiz-adv-x="536" d="M119 1507l334 217l69 -135l-356 -166zM184 0v1331h166v-1331h-166z" />
<glyph unicode="&#xce;" horiz-adv-x="536" d="M-27 1528l248 203h88l246 -199l-72 -90l-223 168l-219 -168zM184 0v1331h166v-1331h-166z" />
<glyph unicode="&#xcf;" horiz-adv-x="536" d="M-12 1585q0 40 27 68t67 28t68 -28t28 -68t-28 -67t-68 -27t-67 27t-27 67zM184 0v1331h166v-1331h-166zM356 1585q0 40 27.5 68t67.5 28t68 -28t28 -68t-28 -67t-68 -27t-67.5 27t-27.5 67z" />
<glyph unicode="&#xd0;" horiz-adv-x="1374" d="M43 612v131h141v588h463q136 0 243 -35.5t176 -95t114 -144t63.5 -177t18.5 -199.5q0 -121 -16.5 -217.5t-59.5 -185.5t-112.5 -148t-180.5 -94t-258 -35h-451v612h-141zM350 145h303q108 0 186.5 27t124.5 70.5t73.5 112.5t36.5 139.5t9 164.5q0 86 -12 159t-42.5 142.5 t-78.5 118t-126 78t-179 29.5h-295v-443h262v-131h-262v-467z" />
<glyph unicode="&#xd1;" horiz-adv-x="1439" d="M184 0v1331h174l533 -764l209 -311l-2 258v817h157v-1331h-165l-535 768l-213 319l2 -294v-793h-160zM426 1546q94 127 199 127q55 0 138 -29.5t122 -29.5q80 0 133 65l55 -63q-87 -125 -196 -125q-44 0 -128.5 31.5t-125.5 31.5q-83 0 -140 -67z" />
<glyph unicode="&#xd2;" d="M111 659q0 201 71.5 356.5t211 245t327.5 89.5q291 0 447.5 -179t156.5 -507q0 -198 -74.5 -353t-215 -243t-324.5 -88q-291 0 -445.5 179.5t-154.5 499.5zM287 659q0 -260 101 -398t323 -138q215 0 325.5 144.5t110.5 396.5q0 542 -426 542q-434 0 -434 -547zM461 1589 l69 135l334 -217l-47 -84z" />
<glyph unicode="&#xd3;" d="M111 659q0 201 71.5 356.5t211 245t327.5 89.5q291 0 447.5 -179t156.5 -507q0 -198 -74.5 -353t-215 -243t-324.5 -88q-291 0 -445.5 179.5t-154.5 499.5zM287 659q0 -260 101 -398t323 -138q215 0 325.5 144.5t110.5 396.5q0 542 -426 542q-434 0 -434 -547zM571 1507 l334 217l70 -135l-357 -166z" />
<glyph unicode="&#xd4;" d="M111 659q0 201 71.5 356.5t211 245t327.5 89.5q291 0 447.5 -179t156.5 -507q0 -198 -74.5 -353t-215 -243t-324.5 -88q-291 0 -445.5 179.5t-154.5 499.5zM287 659q0 -260 101 -398t323 -138q215 0 325.5 144.5t110.5 396.5q0 542 -426 542q-434 0 -434 -547zM442 1528 l248 203h88l246 -199l-72 -90l-223 168l-219 -168z" />
<glyph unicode="&#xd5;" d="M111 659q0 201 71.5 356.5t211 245t327.5 89.5q291 0 447.5 -179t156.5 -507q0 -198 -74.5 -353t-215 -243t-324.5 -88q-291 0 -445.5 179.5t-154.5 499.5zM287 659q0 -260 101 -398t323 -138q215 0 325.5 144.5t110.5 396.5q0 542 -426 542q-434 0 -434 -547zM399 1546 q94 127 199 127q54 0 137 -29.5t123 -29.5q80 0 133 65l56 -63q-87 -125 -197 -125q-44 0 -129 31.5t-125 31.5q-82 0 -139 -67z" />
<glyph unicode="&#xd6;" d="M111 659q0 201 71.5 356.5t211 245t327.5 89.5q291 0 447.5 -179t156.5 -507q0 -198 -74.5 -353t-215 -243t-324.5 -88q-291 0 -445.5 179.5t-154.5 499.5zM287 659q0 -260 101 -398t323 -138q215 0 325.5 144.5t110.5 396.5q0 542 -426 542q-434 0 -434 -547zM430 1585 q0 40 27 68t67 28t68.5 -28t28.5 -68q0 -39 -28.5 -66.5t-68.5 -27.5t-67 27t-27 67zM799 1585q0 40 27 68t67 28t68 -28t28 -68t-28 -67t-68 -27t-67 27t-27 67z" />
<glyph unicode="&#xd7;" horiz-adv-x="907" d="M115 348l252 234l-250 231l92 86l248 -231l248 233l88 -82l-250 -229l252 -240l-90 -84l-254 236l-248 -234z" />
<glyph unicode="&#xd8;" d="M100 -6l150 184q-139 177 -139 481q0 201 71.5 356.5t211 245t327.5 89.5q234 0 379 -115l82 100h149l-147 -184q141 -179 141 -487q0 -198 -74.5 -353t-215 -243t-324.5 -88q-232 0 -379 116l-82 -102h-150zM287 659q0 -222 67 -350l647 803q-105 94 -280 94 q-434 0 -434 -547zM428 215q106 -92 283 -92q215 0 325.5 144.5t110.5 396.5q0 216 -72 354z" />
<glyph unicode="&#xd9;" horiz-adv-x="1378" d="M170 481v850h166v-831q0 -143 38.5 -226.5t114 -118t201.5 -34.5q187 0 270.5 91.5t83.5 301.5v817h164v-833q0 -242 -127.5 -380t-394.5 -138q-272 0 -394 126t-122 375zM436 1589l70 135l334 -217l-47 -84z" />
<glyph unicode="&#xda;" horiz-adv-x="1378" d="M170 481v850h166v-831q0 -143 38.5 -226.5t114 -118t201.5 -34.5q187 0 270.5 91.5t83.5 301.5v817h164v-833q0 -242 -127.5 -380t-394.5 -138q-272 0 -394 126t-122 375zM547 1507l334 217l69 -135l-356 -166z" />
<glyph unicode="&#xdb;" horiz-adv-x="1378" d="M170 481v850h166v-831q0 -143 38.5 -226.5t114 -118t201.5 -34.5q187 0 270.5 91.5t83.5 301.5v817h164v-833q0 -242 -127.5 -380t-394.5 -138q-272 0 -394 126t-122 375zM401 1528l248 203h88l246 -199l-72 -90l-223 168l-219 -168z" />
<glyph unicode="&#xdc;" horiz-adv-x="1378" d="M170 481v850h166v-831q0 -143 38.5 -226.5t114 -118t201.5 -34.5q187 0 270.5 91.5t83.5 301.5v817h164v-833q0 -242 -127.5 -380t-394.5 -138q-272 0 -394 126t-122 375zM408 1585q0 40 27 68t67 28t68 -28t28 -68t-28 -67t-68 -27t-67 27t-27 67zM776 1585q0 40 27 68 t67 28t68.5 -28t28.5 -68q0 -39 -28.5 -66.5t-68.5 -27.5t-67 27t-27 67z" />
<glyph unicode="&#xdd;" horiz-adv-x="1064" d="M6 1331h178l185 -338l178 -344l164 342l170 340h166l-422 -817v-514h-166v514zM387 1507l334 217l70 -135l-357 -166z" />
<glyph unicode="&#xde;" horiz-adv-x="1116" d="M184 0v1331h166v-184h228q245 0 354.5 -108t109.5 -316q0 -202 -123 -318t-327 -116h-242v-289h-166zM350 434h232q132 0 208 67t76 214q0 148 -69 218.5t-224 70.5h-223v-570z" />
<glyph unicode="&#xdf;" horiz-adv-x="1292" d="M57 840v114l160 11v43q0 105 35 187t95 130.5t135 73t161 24.5q187 0 283 -77.5t96 -212.5q0 -48 -28.5 -92.5t-69 -79.5t-81.5 -69t-69.5 -76t-28.5 -87q0 -37 27 -66.5t69.5 -49.5t94.5 -40t104 -45.5t94.5 -57t69.5 -83t27 -117.5q0 -63 -22 -114t-58 -83t-86 -53.5 t-102.5 -30.5t-110.5 -9q-83 0 -166 22.5t-145 58.5l47 150q39 -38 114 -69t148 -31q215 0 215 147q0 45 -26.5 79t-69 56t-94 42t-102.5 42.5t-93.5 51.5t-69 76t-26.5 108q0 62 27.5 114.5t66.5 88.5t78 68t66.5 67.5t27.5 72.5q0 76 -53.5 121t-161.5 45 q-123 0 -189.5 -72t-66.5 -221v-997h-162v840h-160z" />
<glyph unicode="&#xe0;" horiz-adv-x="1021" d="M86 252q0 85 38 144.5t105 90t140 43.5t161 13q54 0 148 -8l2 135q0 111 -48.5 155.5t-142.5 44.5q-27 0 -53.5 -4t-57 -15.5t-48 -31t-27 -50t5.5 -73.5l-147 -18q-12 41 -12 76q0 110 103.5 178.5t252.5 68.5q54 0 100.5 -9t90.5 -31t75.5 -56.5t50 -89.5t17.5 -125 l-2 -473q0 -72 30 -94t74 -8l12 -121q-49 -14 -94 -14q-73 0 -117 37t-55 102q-128 -139 -311 -139q-131 0 -211 74.5t-80 197.5zM231 1360l101 108l262 -274l-68 -70zM254 268q0 -77 48 -118t128 -41q68 0 136.5 37.5t111.5 89.5v190q-86 12 -148 12q-55 0 -101 -8t-87 -26 t-64.5 -53t-23.5 -83z" />
<glyph unicode="&#xe1;" horiz-adv-x="1021" d="M86 252q0 85 38 144.5t105 90t140 43.5t161 13q54 0 148 -8l2 135q0 111 -48.5 155.5t-142.5 44.5q-27 0 -53.5 -4t-57 -15.5t-48 -31t-27 -50t5.5 -73.5l-147 -18q-12 41 -12 76q0 110 103.5 178.5t252.5 68.5q54 0 100.5 -9t90.5 -31t75.5 -56.5t50 -89.5t17.5 -125 l-2 -473q0 -72 30 -94t74 -8l12 -121q-49 -14 -94 -14q-73 0 -117 37t-55 102q-128 -139 -311 -139q-131 0 -211 74.5t-80 197.5zM254 268q0 -77 48 -118t128 -41q68 0 136.5 37.5t111.5 89.5v190q-86 12 -148 12q-55 0 -101 -8t-87 -26t-64.5 -53t-23.5 -83zM365 1194 l264 274l98 -108l-295 -236z" />
<glyph unicode="&#xe2;" horiz-adv-x="1021" d="M86 252q0 85 38 144.5t105 90t140 43.5t161 13q54 0 148 -8l2 135q0 111 -48.5 155.5t-142.5 44.5q-27 0 -53.5 -4t-57 -15.5t-48 -31t-27 -50t5.5 -73.5l-147 -18q-12 41 -12 76q0 110 103.5 178.5t252.5 68.5q54 0 100.5 -9t90.5 -31t75.5 -56.5t50 -89.5t17.5 -125 l-2 -473q0 -72 30 -94t74 -8l12 -121q-49 -14 -94 -14q-73 0 -117 37t-55 102q-128 -139 -311 -139q-131 0 -211 74.5t-80 197.5zM195 1184l256 243h88l252 -237l-86 -84l-213 199l-213 -201zM254 268q0 -77 48 -118t128 -41q68 0 136.5 37.5t111.5 89.5v190q-86 12 -148 12 q-55 0 -101 -8t-87 -26t-64.5 -53t-23.5 -83z" />
<glyph unicode="&#xe3;" horiz-adv-x="1021" d="M86 252q0 85 38 144.5t105 90t140 43.5t161 13q54 0 148 -8l2 135q0 111 -48.5 155.5t-142.5 44.5q-27 0 -53.5 -4t-57 -15.5t-48 -31t-27 -50t5.5 -73.5l-147 -18q-12 41 -12 76q0 110 103.5 178.5t252.5 68.5q54 0 100.5 -9t90.5 -31t75.5 -56.5t50 -89.5t17.5 -125 l-2 -473q0 -72 30 -94t74 -8l12 -121q-49 -14 -94 -14q-73 0 -117 37t-55 102q-128 -139 -311 -139q-131 0 -211 74.5t-80 197.5zM178 1249q98 127 199 127q56 0 124 -29.5t107 -29.5q80 0 133 63l56 -61q-85 -125 -197 -125q-44 0 -113 30.5t-110 30.5q-85 0 -139 -67z M254 268q0 -77 48 -118t128 -41q68 0 136.5 37.5t111.5 89.5v190q-86 12 -148 12q-55 0 -101 -8t-87 -26t-64.5 -53t-23.5 -83z" />
<glyph unicode="&#xe4;" horiz-adv-x="1021" d="M86 252q0 85 38 144.5t105 90t140 43.5t161 13q54 0 148 -8l2 135q0 111 -48.5 155.5t-142.5 44.5q-27 0 -53.5 -4t-57 -15.5t-48 -31t-27 -50t5.5 -73.5l-147 -18q-12 41 -12 76q0 110 103.5 178.5t252.5 68.5q54 0 100.5 -9t90.5 -31t75.5 -56.5t50 -89.5t17.5 -125 l-2 -473q0 -72 30 -94t74 -8l12 -121q-49 -14 -94 -14q-73 0 -117 37t-55 102q-128 -139 -311 -139q-131 0 -211 74.5t-80 197.5zM213 1282q0 40 27 68t67 28q41 0 68.5 -28t27.5 -68t-27.5 -67t-68.5 -27q-40 0 -67 27t-27 67zM254 268q0 -77 48 -118t128 -41 q68 0 136.5 37.5t111.5 89.5v190q-86 12 -148 12q-55 0 -101 -8t-87 -26t-64.5 -53t-23.5 -83zM571 1282q0 40 27.5 68t67.5 28t68 -28t28 -68t-28 -67t-68 -27t-67.5 27t-27.5 67z" />
<glyph unicode="&#xe5;" horiz-adv-x="1021" d="M86 252q0 85 38 144.5t105 90t140 43.5t161 13q54 0 148 -8l2 135q0 111 -48.5 155.5t-142.5 44.5q-27 0 -53.5 -4t-57 -15.5t-48 -31t-27 -50t5.5 -73.5l-147 -18q-12 41 -12 76q0 110 103.5 178.5t252.5 68.5q54 0 100.5 -9t90.5 -31t75.5 -56.5t50 -89.5t17.5 -125 l-2 -473q0 -72 30 -94t74 -8l12 -121q-49 -14 -94 -14q-73 0 -117 37t-55 102q-128 -139 -311 -139q-131 0 -211 74.5t-80 197.5zM254 268q0 -77 48 -118t128 -41q68 0 136.5 37.5t111.5 89.5v190q-86 12 -148 12q-55 0 -101 -8t-87 -26t-64.5 -53t-23.5 -83zM274 1311 q0 89 62 142.5t153 53.5q93 0 151 -51.5t58 -144.5q0 -85 -59 -143t-154 -58q-94 0 -152.5 55.5t-58.5 145.5zM375 1311q0 -57 28.5 -87t81.5 -30q109 0 109 117q0 114 -109 114q-110 0 -110 -114z" />
<glyph unicode="&#xe6;" horiz-adv-x="1585" d="M86 252q0 67 26 119t67.5 83.5t100.5 51.5t119 27.5t129 7.5q76 0 140 -6q0 46 12 100v43q0 106 -49 148t-142 42q-27 0 -53.5 -4t-57 -15t-48 -30t-27 -49.5t5.5 -73.5l-147 -18q-12 41 -12 76q0 110 103.5 178.5t252.5 68.5q95 0 172.5 -33.5t114.5 -109.5 q118 143 305 143q387 0 387 -473v-61h-649q12 -354 327 -354q74 0 143.5 30t118.5 70l45 -135q-161 -98 -342 -98q-260 0 -378 178q-90 -96 -178.5 -137t-194.5 -41q-131 0 -211 74.5t-80 197.5zM254 268q0 -77 48 -118t128 -41q81 0 153.5 42t118.5 99q-28 80 -34 176 q-68 10 -140 10q-274 0 -274 -168zM836 580h485q5 140 -51.5 217t-171.5 77q-238 0 -262 -294z" />
<glyph unicode="&#xe7;" horiz-adv-x="937" d="M96 475q0 250 133 388t344 138q159 0 283 -65l-51 -152q-110 80 -230 80q-149 0 -228 -100t-79 -287q0 -171 82.5 -266.5t233.5 -95.5q63 0 123 24t102 60l45 -138q-108 -69 -264 -79l-27 -101q91 -14 139 -63t48 -113q0 -74 -66 -124t-166 -50q-102 0 -178 49l43 107 q20 -23 57 -39.5t76 -16.5q51 0 78 21t27 55q0 44 -45.5 73.5t-131.5 33.5l48 170q-185 18 -290.5 145t-105.5 346z" />
<glyph unicode="&#xe8;" horiz-adv-x="1017" d="M98 492q0 236 123 372.5t311 136.5q386 0 386 -473v-61h-652q6 -177 90.5 -265.5t239.5 -88.5q75 0 145 30.5t117 69.5l45 -135q-158 -98 -342 -98q-213 0 -338 128.5t-125 383.5zM270 580h484q5 140 -52 217t-172 77q-236 0 -260 -294zM285 1360l100 108l262 -274 l-67 -70z" />
<glyph unicode="&#xe9;" horiz-adv-x="1017" d="M98 492q0 236 123 372.5t311 136.5q386 0 386 -473v-61h-652q6 -177 90.5 -265.5t239.5 -88.5q75 0 145 30.5t117 69.5l45 -135q-158 -98 -342 -98q-213 0 -338 128.5t-125 383.5zM270 580h484q5 140 -52 217t-172 77q-236 0 -260 -294zM399 1194l265 274l98 -108 l-295 -236z" />
<glyph unicode="&#xea;" horiz-adv-x="1017" d="M98 492q0 236 123 372.5t311 136.5q386 0 386 -473v-61h-652q6 -177 90.5 -265.5t239.5 -88.5q75 0 145 30.5t117 69.5l45 -135q-158 -98 -342 -98q-213 0 -338 128.5t-125 383.5zM238 1184l256 243h88l252 -237l-86 -84l-213 199l-213 -201zM270 580h484q5 140 -52 217 t-172 77q-236 0 -260 -294z" />
<glyph unicode="&#xeb;" horiz-adv-x="1017" d="M98 492q0 236 123 372.5t311 136.5q386 0 386 -473v-61h-652q6 -177 90.5 -265.5t239.5 -88.5q75 0 145 30.5t117 69.5l45 -135q-158 -98 -342 -98q-213 0 -338 128.5t-125 383.5zM252 1282q0 40 27 68t67 28q41 0 68.5 -28t27.5 -68t-27.5 -67t-68.5 -27q-40 0 -67 27 t-27 67zM270 580h484q5 140 -52 217t-172 77q-236 0 -260 -294zM610 1282q0 40 27.5 68t67.5 28t68 -28t28 -68t-28 -67t-68 -27t-67.5 27t-27.5 67z" />
<glyph unicode="&#xec;" horiz-adv-x="475" d="M-16 1360l100 108l262 -274l-67 -70zM156 0v977h163v-977h-163z" />
<glyph unicode="&#xed;" horiz-adv-x="475" d="M100 1194l265 274l98 -108l-295 -236zM156 0v977h163v-977h-163z" />
<glyph unicode="&#xee;" horiz-adv-x="475" d="M-63 1184l256 243h88l251 -237l-86 -84l-213 199l-213 -201zM156 0v977h163v-977h-163z" />
<glyph unicode="&#xef;" horiz-adv-x="475" d="M-37 1282q0 40 27 68t67 28q41 0 69 -28t28 -68t-28 -67t-69 -27q-40 0 -67 27t-27 67zM156 0v977h163v-977h-163zM322 1282q0 40 27 68t67 28t68 -28t28 -68t-28 -67t-68 -27t-67 27t-27 67z" />
<glyph unicode="&#xf0;" horiz-adv-x="1142" d="M98 492q0 221 121 358t326 137q126 0 209 -57q-87 144 -211 250l-115 -127l-82 63l111 125q-59 40 -119 72l76 102q76 -37 133 -72l104 117l84 -67l-98 -109q380 -283 389 -770v-22q0 -82 -18.5 -157.5t-57 -140t-93 -112.5t-130.5 -75t-166 -27q-220 0 -341.5 133 t-121.5 379zM270 492q0 -379 289 -379q292 0 295 366q0 174 -41 299q-45 37 -114 60.5t-136 23.5q-293 0 -293 -370z" />
<glyph unicode="&#xf1;" horiz-adv-x="1128" d="M156 0v977h153l2 -113q156 137 334 137q51 0 95.5 -8.5t90.5 -31.5t78.5 -60t53 -98t20.5 -141v-662h-164v602q0 141 -51 197.5t-160 56.5q-143 0 -289 -119v-737h-163zM258 1249q98 127 199 127q56 0 124 -29.5t107 -29.5q80 0 133 63l56 -61q-85 -125 -197 -125 q-44 0 -113 30.5t-110 30.5q-86 0 -140 -67z" />
<glyph unicode="&#xf2;" horiz-adv-x="1122" d="M96 492q0 225 125.5 367t337.5 142q223 0 344 -134t121 -375q0 -139 -51 -253.5t-158 -186.5t-254 -72q-220 0 -342.5 133t-122.5 379zM268 492q0 -379 289 -379q82 0 141 27.5t92.5 79.5t48.5 119t15 153q0 81 -15 146t-48.5 118t-92.5 82.5t-141 29.5q-79 0 -136.5 -29 t-90 -81.5t-47.5 -118t-15 -147.5zM279 1360l100 108l262 -274l-68 -70z" />
<glyph unicode="&#xf3;" horiz-adv-x="1122" d="M96 492q0 225 125.5 367t337.5 142q223 0 344 -134t121 -375q0 -139 -51 -253.5t-158 -186.5t-254 -72q-220 0 -342.5 133t-122.5 379zM268 492q0 -379 289 -379q82 0 141 27.5t92.5 79.5t48.5 119t15 153q0 81 -15 146t-48.5 118t-92.5 82.5t-141 29.5q-79 0 -136.5 -29 t-90 -81.5t-47.5 -118t-15 -147.5zM418 1194l264 274l98 -108l-295 -236z" />
<glyph unicode="&#xf4;" horiz-adv-x="1122" d="M96 492q0 225 125.5 367t337.5 142q223 0 344 -134t121 -375q0 -139 -51 -253.5t-158 -186.5t-254 -72q-220 0 -342.5 133t-122.5 379zM258 1184l256 243h88l252 -237l-86 -84l-213 199l-213 -201zM268 492q0 -379 289 -379q82 0 141 27.5t92.5 79.5t48.5 119t15 153 q0 81 -15 146t-48.5 118t-92.5 82.5t-141 29.5q-79 0 -136.5 -29t-90 -81.5t-47.5 -118t-15 -147.5z" />
<glyph unicode="&#xf5;" horiz-adv-x="1122" d="M96 492q0 225 125.5 367t337.5 142q223 0 344 -134t121 -375q0 -139 -51 -253.5t-158 -186.5t-254 -72q-220 0 -342.5 133t-122.5 379zM246 1249q98 127 198 127q56 0 124.5 -29.5t107.5 -29.5q80 0 133 63l55 -61q-85 -125 -196 -125q-44 0 -114 30.5t-110 30.5 q-85 0 -139 -67zM268 492q0 -379 289 -379q82 0 141 27.5t92.5 79.5t48.5 119t15 153q0 81 -15 146t-48.5 118t-92.5 82.5t-141 29.5q-79 0 -136.5 -29t-90 -81.5t-47.5 -118t-15 -147.5z" />
<glyph unicode="&#xf6;" horiz-adv-x="1122" d="M96 492q0 225 125.5 367t337.5 142q223 0 344 -134t121 -375q0 -139 -51 -253.5t-158 -186.5t-254 -72q-220 0 -342.5 133t-122.5 379zM268 492q0 -379 289 -379q82 0 141 27.5t92.5 79.5t48.5 119t15 153q0 81 -15 146t-48.5 118t-92.5 82.5t-141 29.5q-79 0 -136.5 -29 t-90 -81.5t-47.5 -118t-15 -147.5zM276 1282q0 40 27.5 68t67.5 28q41 0 68.5 -28t27.5 -68t-27.5 -67t-68.5 -27q-40 0 -67.5 27t-27.5 67zM635 1282q0 40 27 68t67 28t68 -28t28 -68t-28 -67t-68 -27t-67 27t-27 67z" />
<glyph unicode="&#xf7;" horiz-adv-x="964" d="M109 543v119h747v-119h-747zM385 330q0 40 27.5 68t68.5 28q40 0 68.5 -28t28.5 -68t-28.5 -68.5t-68.5 -28.5q-41 0 -68.5 28.5t-27.5 68.5zM385 868q0 42 27.5 70.5t68.5 28.5q40 0 68.5 -29t28.5 -70q0 -39 -28.5 -66.5t-68.5 -27.5q-41 0 -68.5 27t-27.5 67z" />
<glyph unicode="&#xf8;" horiz-adv-x="1122" d="M96 492q0 225 125.5 367t337.5 142q167 0 279 -77l47 61h141l-108 -137q106 -130 106 -356q0 -139 -51 -253.5t-158 -186.5t-254 -72q-164 0 -274 73l-47 -59h-140l105 133q-109 130 -109 365zM268 492q0 -148 41 -234l434 549q-70 61 -186 61q-79 0 -136.5 -29 t-90 -81.5t-47.5 -118t-15 -147.5zM377 168q67 -55 180 -55q82 0 141 27.5t92.5 79.5t48.5 119t15 153q0 134 -41 223z" />
<glyph unicode="&#xf9;" horiz-adv-x="1124" d="M145 317v660h164v-606q0 -142 51 -198t158 -56q134 0 287 125v735h162v-977h-150l-4 115q-160 -138 -328 -138q-51 0 -95.5 8t-91 30.5t-79 59t-53.5 98.5t-21 144zM309 1360l101 108l262 -274l-68 -70z" />
<glyph unicode="&#xfa;" horiz-adv-x="1124" d="M145 317v660h164v-606q0 -142 51 -198t158 -56q134 0 287 125v735h162v-977h-150l-4 115q-160 -138 -328 -138q-51 0 -95.5 8t-91 30.5t-79 59t-53.5 98.5t-21 144zM444 1194l265 274l98 -108l-295 -236z" />
<glyph unicode="&#xfb;" horiz-adv-x="1124" d="M145 317v660h164v-606q0 -142 51 -198t158 -56q134 0 287 125v735h162v-977h-150l-4 115q-160 -138 -328 -138q-51 0 -95.5 8t-91 30.5t-79 59t-53.5 98.5t-21 144zM256 1184l256 243h88l252 -237l-86 -84l-213 199l-213 -201z" />
<glyph unicode="&#xfc;" horiz-adv-x="1124" d="M145 317v660h164v-606q0 -142 51 -198t158 -56q134 0 287 125v735h162v-977h-150l-4 115q-160 -138 -328 -138q-51 0 -95.5 8t-91 30.5t-79 59t-53.5 98.5t-21 144zM295 1282q0 40 27 68t67 28q41 0 68.5 -28t27.5 -68t-27.5 -67t-68.5 -27q-40 0 -67 27t-27 67z M653 1282q0 40 27.5 68t67.5 28t68 -28t28 -68t-28 -67t-68 -27t-67.5 27t-27.5 67z" />
<glyph unicode="&#xfd;" horiz-adv-x="995" d="M29 977h170l207 -533l102 -278l98 276l201 535h160l-553 -1428h-156l160 422zM389 1194l264 274l99 -108l-295 -236z" />
<glyph unicode="&#xfe;" horiz-adv-x="1124" d="M156 -451v1854h161v-543q148 141 308 141q193 0 298 -132.5t105 -358.5q0 -243 -139 -386.5t-367 -143.5q-97 0 -205 30v-461h-161zM317 166q84 -51 199 -51q161 0 250.5 100.5t89.5 280.5q0 177 -73.5 268.5t-198.5 91.5q-131 0 -267 -123v-567z" />
<glyph unicode="&#xff;" horiz-adv-x="995" d="M29 977h170l207 -533l102 -278l98 276l201 535h160l-553 -1428h-156l160 422zM233 1282q0 40 27.5 68t67.5 28q41 0 68.5 -28t27.5 -68t-27.5 -67t-68.5 -27q-40 0 -67.5 27t-27.5 67zM592 1282q0 40 27 68t67 28t68 -28t28 -68t-28 -67t-68 -27t-67 27t-27 67z" />
<glyph unicode="&#x152;" horiz-adv-x="1773" d="M111 659q0 201 71.5 356.5t211 245t327.5 89.5q88 0 172 -19h760v-145h-619v-432h549v-142h-549v-467h619v-145h-766q-95 -20 -176 -20q-291 0 -445.5 179.5t-154.5 499.5zM287 659q0 -540 424 -540q87 0 157 20v1047q-64 20 -147 20q-434 0 -434 -547z" />
<glyph unicode="&#x153;" horiz-adv-x="1779" d="M96 492q0 225 125.5 367t337.5 142q265 0 385 -190q58 92 149.5 141t200.5 49q385 0 385 -473v-61h-651q6 -177 90.5 -265.5t239.5 -88.5q75 0 145 30.5t117 69.5l45 -135q-158 -98 -342 -98q-270 0 -387 192q-128 -192 -375 -192q-220 0 -342.5 133t-122.5 379zM268 492 q0 -379 289 -379q82 0 141 27.5t92.5 79.5t48.5 119t15 153q0 81 -15 146t-48.5 118t-92.5 82.5t-141 29.5q-79 0 -136.5 -29t-90 -81.5t-47.5 -118t-15 -147.5zM1032 580h484q5 140 -52 217t-172 77q-236 0 -260 -294z" />
<glyph unicode="&#x178;" horiz-adv-x="1064" d="M6 1331h178l185 -338l178 -344l164 342l170 340h166l-422 -817v-514h-166v514zM268 1585q0 40 27 68t67 28t68.5 -28t28.5 -68q0 -39 -28.5 -66.5t-68.5 -27.5t-67 27t-27 67zM637 1585q0 40 27 68t67 28t68 -28t28 -68t-28 -67t-68 -27t-67 27t-27 67z" />
<glyph unicode="&#x2c6;" horiz-adv-x="921" d="M160 1184l256 243h88l252 -237l-86 -84l-213 199l-213 -201z" />
<glyph unicode="&#x2dc;" horiz-adv-x="921" d="M137 1249q98 127 199 127q56 0 124 -29.5t107 -29.5q80 0 133 63l56 -61q-85 -125 -197 -125q-43 0 -113 30.5t-110 30.5q-85 0 -139 -67z" />
<glyph unicode="&#x2000;" horiz-adv-x="902" />
<glyph unicode="&#x2001;" horiz-adv-x="1804" />
<glyph unicode="&#x2002;" horiz-adv-x="902" />
<glyph unicode="&#x2003;" horiz-adv-x="1804" />
<glyph unicode="&#x2004;" horiz-adv-x="601" />
<glyph unicode="&#x2005;" horiz-adv-x="451" />
<glyph unicode="&#x2006;" horiz-adv-x="300" />
<glyph unicode="&#x2007;" horiz-adv-x="300" />
<glyph unicode="&#x2008;" horiz-adv-x="225" />
<glyph unicode="&#x2009;" horiz-adv-x="360" />
<glyph unicode="&#x200a;" horiz-adv-x="100" />
<glyph unicode="&#x2010;" horiz-adv-x="874" d="M174 455v143h526v-143h-526z" />
<glyph unicode="&#x2011;" horiz-adv-x="874" d="M174 455v143h526v-143h-526z" />
<glyph unicode="&#x2012;" horiz-adv-x="874" d="M174 455v143h526v-143h-526z" />
<glyph unicode="&#x2013;" horiz-adv-x="1269" d="M184 473v119h901v-119h-901z" />
<glyph unicode="&#x2014;" horiz-adv-x="2293" d="M184 473v119h1925v-119h-1925z" />
<glyph unicode="&#x2018;" horiz-adv-x="393" d="M96 993q6 113 48 237t106 224l115 -33q-109 -201 -115 -428h-154z" />
<glyph unicode="&#x2019;" horiz-adv-x="387" d="M72 1012q110 206 116 430h152q-4 -113 -46.5 -237.5t-107.5 -223.5z" />
<glyph unicode="&#x201a;" horiz-adv-x="411" d="M23 -254q108 206 114 414h148q-6 -112 -47.5 -228.5t-108.5 -216.5z" />
<glyph unicode="&#x201c;" horiz-adv-x="722" d="M96 993q6 113 48 237t106 224l115 -33q-109 -201 -115 -428h-154zM426 993q6 114 48.5 237.5t107.5 223.5l112 -33q-108 -200 -114 -428h-154z" />
<glyph unicode="&#x201d;" horiz-adv-x="716" d="M72 1012q110 206 116 430h152q-4 -113 -46.5 -237.5t-107.5 -223.5zM401 1012q111 208 117 430h152q-4 -113 -46.5 -237.5t-107.5 -223.5z" />
<glyph unicode="&#x201e;" horiz-adv-x="747" d="M23 -254q108 206 114 414h148q-6 -112 -47.5 -228.5t-108.5 -216.5zM358 -254q109 208 115 414h148q-6 -112 -47.5 -228.5t-108.5 -216.5z" />
<glyph unicode="&#x2022;" horiz-adv-x="696" d="M102 551q0 103 71.5 175.5t174.5 72.5t175.5 -72.5t72.5 -175.5t-72.5 -174.5t-175.5 -71.5t-174.5 71.5t-71.5 174.5z" />
<glyph unicode="&#x2026;" horiz-adv-x="1409" d="M111 80q0 49 28 74.5t78 25.5q49 0 79 -25t30 -75t-29 -75t-80 -25q-106 0 -106 100zM596 80q0 48 28.5 74t77.5 26t80 -25t31 -75q0 -49 -30 -74.5t-81 -25.5q-106 0 -106 100zM1083 80q0 49 28.5 74.5t78.5 25.5q47 0 77.5 -25t30.5 -75q0 -49 -29.5 -74.5t-78.5 -25.5 q-107 0 -107 100z" />
<glyph unicode="&#x202f;" horiz-adv-x="360" />
<glyph unicode="&#x2039;" horiz-adv-x="542" d="M68 479l256 473h141l-227 -465l227 -481h-141z" />
<glyph unicode="&#x203a;" horiz-adv-x="542" d="M78 6l227 481l-227 465h141l256 -473l-256 -473h-141z" />
<glyph unicode="&#x205f;" horiz-adv-x="451" />
<glyph unicode="&#x20ac;" horiz-adv-x="1214" d="M70 446l20 117h135q-2 29 -2 92q0 70 2 103h-135l21 119h131q44 230 185.5 351.5t369.5 121.5q188 0 325 -74l-53 -152q-119 82 -270 82q-169 0 -260 -82t-123 -247h549l-23 -119h-541q-2 -31 -2 -99q0 -65 2 -96h510l-20 -117h-475q31 -167 124 -247t263 -80 q86 0 167 22.5t132 53.5l43 -138q-146 -77 -363 -77q-232 0 -368.5 112.5t-175.5 353.5h-168z" />
<glyph unicode="&#x2122;" horiz-adv-x="1787" d="M25 1239v94h675v-94h-278v-707h-119v707h-278zM752 532v801h137l219 -454l100 -232l97 227l213 459h135v-801h-113v615l-74 -180l-200 -435h-115l-203 414l-90 195l2 -185v-424h-108z" />
<glyph unicode="&#x25fc;" horiz-adv-x="972" d="M0 0v973h973v-973h-973z" />
</font>
</defs>
</svg>
