<?xml version="1.0" standalone="no"?>
<!DOCTYPE svg PUBLIC "-//W3C//DTD SVG 1.1//EN" "http://www.w3.org/Graphics/SVG/1.1/DTD/svg11.dtd" >
<svg xmlns="http://www.w3.org/2000/svg">
<metadata></metadata>
<defs>
<font id="typoninesanslight" horiz-adv-x="1161" >
<font-face units-per-em="2048" ascent="1597" descent="-451" />
<missing-glyph horiz-adv-x="481" />
<glyph unicode="&#xfb01;" horiz-adv-x="1048" d="M63 881v71l166 9v81q0 197 99 289t276 92q152 0 256 -49l-26 -104q-40 25 -103.5 45t-130.5 20q-148 0 -209 -68t-61 -212v-94h553v-961h-101v881h-452v-881h-101v881h-166z" />
<glyph unicode="&#xfb02;" horiz-adv-x="1054" d="M63 881v71l166 9v81q0 197 99 289t276 92q95 0 197 -20h82v-1403h-101v1305q-92 30 -182 30q-148 0 -209 -68t-61 -212v-94h272v-80h-272v-881h-101v881h-166z" />
<glyph unicode="&#xfb03;" horiz-adv-x="1601" d="M63 881v71l166 9v40q0 99 29 173.5t80 118t114.5 64.5t139.5 21q77 0 138 -16t132 -49q93 110 295 110q152 0 256 -49l-27 -104q-40 26 -103 45.5t-130 19.5q-148 0 -209 -68t-61 -212v-94h553v-961h-101v881h-452v-881h-101v881h-452v-881h-101v881h-166zM330 961h452 v81q0 101 29 183q-115 67 -236 67q-110 0 -177.5 -70t-67.5 -212v-49z" />
<glyph unicode="&#xfb04;" horiz-adv-x="1607" d="M63 881v71l166 9v40q0 99 29 173.5t80 118t114.5 64.5t139.5 21q77 0 138 -16t132 -49q93 110 295 110q95 0 197 -20h82v-1403h-101v1305q-92 30 -182 30q-148 0 -209 -68t-61 -212v-94h272v-80h-272v-881h-101v881h-452v-881h-101v881h-166zM330 961h452v81 q0 101 29 183q-115 67 -236 67q-110 0 -177.5 -70t-67.5 -212v-49z" />
<glyph horiz-adv-x="0" />
<glyph horiz-adv-x="682" />
<glyph unicode=" "  horiz-adv-x="481" />
<glyph unicode="&#x09;" horiz-adv-x="481" />
<glyph unicode="&#xa0;" horiz-adv-x="481" />
<glyph unicode="!" horiz-adv-x="571" d="M211 53q0 34 20.5 52t55.5 18q33 0 55.5 -17.5t22.5 -52.5q0 -36 -22.5 -54.5t-55.5 -18.5q-76 0 -76 73zM231 862v469h105v-469l-12 -491h-76z" />
<glyph unicode="&#x22;" horiz-adv-x="702" d="M121 1331h117l-25 -440h-63zM461 1331h119l-27 -440h-61z" />
<glyph unicode="#" horiz-adv-x="1216" d="M94 334l10 72h211l60 348h-228l11 71h229l55 322h80l-55 -322h354l56 322h79l-55 -322h217l-10 -71h-219l-60 -348h236l-10 -72h-238l-55 -334h-80l55 334h-354l-55 -334h-80l55 334h-209zM395 406h355l59 348h-354z" />
<glyph unicode="$" horiz-adv-x="987" d="M102 113l37 96q48 -36 135 -64.5t177 -31.5v520q-43 18 -69.5 29.5t-65 31t-62 36.5t-50.5 42.5t-42 52.5t-25 62.5t-10 75.5q0 117 91 194.5t233 91.5v127h81v-123q198 -6 299 -57l-36 -96q-86 62 -263 69v-471q49 -21 74 -32t69 -33.5t68 -40t54.5 -46t46.5 -57 t27.5 -67t11.5 -82.5q0 -120 -100.5 -205t-250.5 -100v-119h-81v115q-113 1 -204 26t-145 56zM233 969q0 -83 56.5 -136.5t161.5 -99.5v432q-101 -12 -159.5 -64.5t-58.5 -131.5zM532 117q103 13 171.5 67.5t68.5 143.5q0 52 -18.5 94.5t-54.5 74.5t-74 54.5t-93 46.5v-481z " />
<glyph unicode="%" horiz-adv-x="1437" d="M109 1040q0 84 30.5 152t102 113t176.5 45q160 0 235.5 -84.5t75.5 -225.5q0 -44 -9 -85.5t-32 -83t-57.5 -72t-89 -49.5t-123.5 -19q-162 0 -235.5 77.5t-73.5 231.5zM207 1040q0 -53 8.5 -91.5t30.5 -71.5t65 -49.5t107 -16.5q62 0 105 17t65.5 49.5t31.5 71.5t9 91 q0 33 -5 62.5t-19.5 61t-37.5 54.5t-61 37.5t-88 14.5q-211 0 -211 -230zM227 152l895 1060l60 -51l-891 -1057zM705 287q0 131 77.5 220t231.5 89q160 0 235.5 -84t75.5 -225q0 -44 -9 -86t-32 -83t-57.5 -72t-89 -50t-123.5 -19q-162 0 -235.5 78t-73.5 232zM803 287 q0 -53 8.5 -91.5t30.5 -71.5t65 -50t107 -17q62 0 105 17t65.5 50t31.5 72t9 91q0 33 -5 62.5t-19.5 61t-37.5 54t-61 37t-88 14.5q-211 0 -211 -229z" />
<glyph unicode="&#x26;" horiz-adv-x="1525" d="M111 324q0 128 98.5 236t282.5 147q-46 196 -46 329q0 139 75 226.5t212 87.5q32 0 62.5 -6.5t65 -26.5t60 -50.5t42 -83.5t16.5 -122q0 -84 -31.5 -154.5t-86 -119.5t-118.5 -81.5t-137 -50.5q73 -246 230 -413q81 96 117 198t48 230h404v-82h-320q-26 -121 -70 -210.5 t-126 -187.5q144 -121 307 -124q54 0 102 26t78 70l54 -88q-39 -42 -106.5 -68t-135.5 -26q-194 0 -369 145q-155 -145 -350 -145q-160 0 -259 103t-99 241zM215 334q0 -71 23.5 -125.5t62.5 -86t83.5 -47.5t92.5 -16q88 0 155.5 30t131.5 89q-161 164 -254 457 q-162 -44 -228.5 -116t-66.5 -185zM545 1081q0 -181 43 -354q119 32 202.5 113.5t83.5 208.5q0 119 -38.5 171t-114.5 52t-126 -49.5t-50 -141.5z" />
<glyph unicode="'" horiz-adv-x="358" d="M121 1331h117l-31 -440h-55z" />
<glyph unicode="(" horiz-adv-x="708" d="M102 512q0 573 478 926l43 -58q-79 -68 -137 -128t-115 -140.5t-92.5 -165t-57.5 -195.5t-22 -239t22 -239t57.5 -195.5t92.5 -165t115 -140.5t137 -128l-43 -58q-478 353 -478 926z" />
<glyph unicode=")" horiz-adv-x="706" d="M84 -356q79 68 137 128t115 140.5t92.5 165t57.5 195.5t22 239t-22 239t-57.5 195.5t-92.5 165t-115 140.5t-137 128l43 58q477 -352 477 -926t-477 -926z" />
<glyph unicode="*" horiz-adv-x="817" d="M102 879l252 100q7 -18 25 -29l-215 -164zM102 1100l62 94l207 -152q-21 -12 -21 -41zM354 692l31 256q6 -4 25 -4l14 2l33 -254h-103zM354 1286h103l-29 -233q-8 4 -16 4q-15 0 -23 -2zM432 948q16 7 29 29l254 -100l-62 -91zM446 1042l207 152l62 -92l-250 -98 q-4 26 -19 38z" />
<glyph unicode="+" horiz-adv-x="1060" d="M115 571v86h368v336h92v-336h371v-86h-371v-346h-92v346h-368z" />
<glyph unicode="," horiz-adv-x="389" d="M41 -266q104 212 111 383h92q-15 -212 -129 -404z" />
<glyph unicode="-" horiz-adv-x="901" d="M199 481v99h503v-99h-503z" />
<glyph unicode="." horiz-adv-x="411" d="M129 53q0 34 20.5 52t55.5 18q34 0 56 -17.5t22 -52.5q0 -36 -22 -54.5t-56 -18.5q-76 0 -76 73z" />
<glyph unicode="/" horiz-adv-x="897" d="M88 -131l629 1534h92l-629 -1534h-92z" />
<glyph unicode="0" horiz-adv-x="1255" d="M123 641q0 113 13.5 210.5t49.5 191.5t92 160t146 106.5t207 40.5q132 0 229.5 -45.5t156.5 -131.5t87.5 -202.5t28.5 -265.5q0 -69 -6 -134.5t-21.5 -139.5t-40 -137.5t-65 -122t-93 -100t-126.5 -66.5t-163 -25q-246 0 -370.5 173.5t-124.5 487.5zM229 688 q0 -67 3.5 -123t14 -121.5t28.5 -116.5t49 -100.5t72.5 -82t101.5 -52.5t135 -20q69 0 125.5 20.5t96.5 55t71 83.5t49.5 102t30 115t16 117.5t4.5 114.5q0 61 -3.5 112.5t-14.5 112t-28.5 108.5t-49 94t-73 77t-103 50t-136.5 19q-76 0 -138 -23t-103.5 -65.5t-71 -95.5 t-46 -118.5t-23.5 -129t-7 -133.5z" />
<glyph unicode="1" horiz-adv-x="622" d="M18 1227v98l420 23v-1348h-102v1241z" />
<glyph unicode="2" horiz-adv-x="1030" d="M61 0v84q82 63 173.5 144.5t188.5 184t174.5 202.5t127 201.5t49.5 178.5q0 123 -78.5 190.5t-191.5 67.5q-79 0 -159 -39t-138 -100l-62 66q68 76 169.5 123t207.5 47q71 0 134.5 -21.5t113.5 -62.5t79.5 -108t29.5 -152q0 -98 -66 -226.5t-170.5 -254t-218.5 -236.5 t-223 -195h745v-94h-885z" />
<glyph unicode="3" horiz-adv-x="1007" d="M70 94l63 86q57 -47 145 -77.5t173 -30.5q88 0 166 31t129 94.5t51 146.5q0 76 -39 134t-109.5 94.5t-159 57.5t-198.5 29v78q83 7 159 29.5t140 58.5t102.5 92t38.5 123q0 98 -74.5 155.5t-189.5 57.5q-159 0 -285 -90l-45 82q6 4 17 11t47 25.5t74.5 32t95 25 t112.5 11.5q153 0 254 -82.5t101 -206.5q0 -136 -91 -225t-245 -123q191 -28 296 -122.5t105 -240.5q0 -71 -26 -134.5t-79 -117.5t-148 -86t-220 -32q-112 0 -220.5 40.5t-139.5 73.5z" />
<glyph unicode="4" horiz-adv-x="1105" d="M55 367v86l662 878h112v-872h211v-92h-211v-363h-102v363h-672zM164 461h563v751z" />
<glyph unicode="5" horiz-adv-x="1011" d="M96 98l58 86q58 -52 141 -82t170 -30q89 0 162 32t120.5 102.5t47.5 168.5q0 82 -31.5 144t-84.5 100.5t-134 62t-169.5 32.5t-201.5 9v608h690v-96h-588v-418q320 -6 473.5 -114t153.5 -322q0 -63 -16 -120t-51.5 -109t-89 -89.5t-133.5 -60t-179 -22.5q-95 0 -188 35 t-150 83z" />
<glyph unicode="6" horiz-adv-x="1107" d="M111 614q0 340 191 538t529 198q46 0 111 -7v-98q-55 8 -123 8q-125 0 -232.5 -38t-189 -111t-129.5 -187t-51 -258q182 127 404 127q78 0 146 -22t122 -65.5t85.5 -114t31.5 -160.5q0 -199 -117 -321.5t-320 -122.5q-99 0 -176.5 30.5t-130 85.5t-87 135t-49.5 174.5 t-15 208.5zM217 559q8 -487 369 -487q79 0 140.5 27t97.5 73t54.5 103t18.5 122q0 153 -79.5 224t-250.5 71q-94 0 -185.5 -36.5t-164.5 -96.5z" />
<glyph unicode="7" horiz-adv-x="956" d="M49 1235v96h875v-71l-598 -1256h-105l588 1231h-760z" />
<glyph unicode="8" horiz-adv-x="1103" d="M106 301q0 61 20.5 114.5t51.5 92.5t81 76.5t94 62.5t106 55q-140 83 -166 101q-101 70 -128 154q-13 41 -13 90q0 135 120 219t289 84q175 0 281 -80.5t106 -216.5q0 -174 -323 -340q12 -7 59.5 -32.5t66.5 -36t61 -37t62 -44t50 -46.5t44 -55t25 -60t11 -70 q0 -103 -66.5 -185t-169 -124.5t-217.5 -42.5q-79 0 -157 21.5t-143 60.5t-105 101.5t-40 137.5zM213 315q0 -118 100 -181.5t254 -63.5q144 0 236 71t92 181q0 43 -24 85t-50 70t-84 65t-83.5 50.5t-89.5 46.5q-18 10 -27 14q-67 -31 -116.5 -60t-101 -70.5t-79 -94 t-27.5 -113.5zM252 1055q0 -85 50 -132t233 -157q13 -8 20 -12q148 89 215.5 155.5t67.5 139.5q0 57 -24.5 99.5t-66 66t-89 34.5t-101.5 11q-138 0 -221.5 -55.5t-83.5 -149.5z" />
<glyph unicode="9" horiz-adv-x="1107" d="M102 905q0 200 117 322.5t320 122.5q123 0 213 -46.5t142.5 -133t77.5 -199t25 -256.5q0 -339 -191 -537t-530 -198q-54 0 -110 6v98q55 -8 123 -8q125 0 232.5 38t189 111t129.5 187t51 258q-182 -127 -404 -127q-78 0 -146 22t-122 65.5t-85.5 114t-31.5 160.5z M211 932q0 -153 79.5 -224t250.5 -71q94 0 185.5 36.5t164.5 96.5q-8 487 -369 487q-79 0 -140.5 -27t-97.5 -73t-54.5 -103t-18.5 -122z" />
<glyph unicode=":" horiz-adv-x="550" d="M199 53q0 34 20 52t55 18q34 0 56 -17.5t22 -52.5q0 -36 -22 -54.5t-56 -18.5q-75 0 -75 73zM199 813q0 34 20 52t55 18q34 0 56 -17.5t22 -52.5q0 -36 -22 -55t-56 -19q-75 0 -75 74z" />
<glyph unicode=";" horiz-adv-x="540" d="M109 -266q102 210 110 383h92q-15 -212 -129 -404zM199 813q0 34 20 52t55 18q34 0 56 -17.5t22 -52.5q0 -36 -22 -55t-56 -19q-75 0 -75 74z" />
<glyph unicode="&#x3c;" horiz-adv-x="985" d="M125 553v72l655 475l51 -70l-608 -438l608 -457l-51 -72z" />
<glyph unicode="=" horiz-adv-x="1333" d="M227 367v86h879v-86h-879zM227 797v86h879v-86h-879z" />
<glyph unicode="&#x3e;" horiz-adv-x="985" d="M154 135l608 457l-608 438l51 70l655 -475v-72l-655 -490z" />
<glyph unicode="?" horiz-adv-x="950" d="M86 1219q63 56 159 93.5t201 37.5q170 0 273.5 -77t103.5 -200q0 -63 -24.5 -117t-63 -93t-85.5 -74.5t-94 -67.5t-85.5 -64t-63 -73t-24.5 -86q0 -52 39 -123l-111 -29q-35 67 -35 154q0 52 24 98.5t63 82.5t85.5 70t93.5 68t86 69.5t63 81.5t24 97q0 90 -79 138 t-200 48q-184 0 -293 -118zM313 53q0 34 20.5 52t55.5 18q34 0 56 -17.5t22 -52.5q0 -36 -22 -54.5t-56 -18.5q-76 0 -76 73z" />
<glyph unicode="@" horiz-adv-x="1740" d="M123 416q0 179 62 327.5t169 246.5t250 152t305 54q167 0 303.5 -56.5t221.5 -149t130.5 -205.5t45.5 -232q0 -80 -12 -155t-39 -146t-67.5 -123.5t-102 -84.5t-136.5 -32q-140 0 -192 117q-127 -117 -289 -117q-115 0 -185.5 67.5t-70.5 170.5q0 59 22.5 105t58.5 74 t87.5 46t104 24.5t112.5 6.5q74 0 156 -10l2 157q1 111 -51.5 156t-145.5 45q-30 0 -59.5 -5t-61.5 -17.5t-51.5 -39.5t-19.5 -65q0 -26 8 -53l-90 -10q-10 38 -10 65q0 93 87.5 150t206.5 57q40 0 76.5 -7t74 -25.5t64 -47t43.5 -75.5t17 -107l-2 -479q0 -49 35 -78t90 -29 q106 0 178 119t72 340q0 116 -43.5 220t-121.5 182.5t-195 124.5t-255 46q-115 0 -218 -28t-190 -86t-150 -141.5t-98.5 -199.5t-35.5 -255q0 -300 190 -485t498 -185q255 0 485 156l39 -64q-234 -168 -544 -168q-149 0 -283.5 48t-241.5 139t-170 237t-63 328zM612 266 q0 -86 50.5 -130t140.5 -44q65 0 137 36.5t117 86.5v207q-75 14 -164 14q-55 0 -101.5 -8t-89 -26t-66.5 -53t-24 -83z" />
<glyph unicode="A" d="M45 0l483 1331h103l485 -1331h-110l-138 383h-583l-138 -383h-102zM317 475h519l-177 496l-84 248l-79 -246z" />
<glyph unicode="B" horiz-adv-x="1159" d="M203 0v1331h350q201 0 294 -83t93 -251q0 -94 -51 -170.5t-146 -113.5v-4q82 -16 141 -50t91 -81.5t46.5 -98.5t14.5 -110q0 -369 -461 -369h-372zM307 98h271q184 0 266 63t82 206q0 276 -367 276h-252v-545zM307 735h230q125 0 208.5 72t83.5 188q0 122 -67.5 180 t-214.5 58h-240v-498z" />
<glyph unicode="C" horiz-adv-x="1171" d="M129 653q0 333 167 515t452 182q94 0 177.5 -20t131.5 -48l-37 -111q-47 38 -120 60t-150 22q-258 0 -384 -154.5t-126 -441.5q0 -295 123.5 -438t377.5 -143q96 0 182.5 20.5t125.5 46.5l28 -94q-132 -69 -340 -69q-137 0 -245 36.5t-191 114t-127.5 209.5t-44.5 313z " />
<glyph unicode="D" horiz-adv-x="1361" d="M203 0v1331h446q132 0 235 -38t167 -100t105 -149t57 -177t16 -193q0 -120 -15.5 -215.5t-56.5 -183.5t-107 -147t-171.5 -93.5t-245.5 -34.5h-430zM307 98h344q118 0 204 30.5t136 79.5t79 126t38.5 153.5t9.5 178.5q0 87 -12.5 164.5t-46 153t-84.5 129.5t-134 87 t-190 33h-344v-1135z" />
<glyph unicode="E" horiz-adv-x="1073" d="M203 0v1331h735v-98h-631v-500h557v-96h-557v-539h631v-98h-735z" />
<glyph unicode="F" horiz-adv-x="1015" d="M203 0v1331h723v-98h-619v-551h545v-96h-545v-586h-104z" />
<glyph unicode="G" horiz-adv-x="1284" d="M127 653q0 175 48.5 310t135.5 218.5t201 126t250 42.5q110 0 202 -23.5t144 -54.5l-37 -111q-54 41 -138.5 66.5t-168.5 25.5q-526 0 -526 -596q0 -159 37 -273.5t107.5 -180.5t162.5 -96.5t211 -30.5q150 0 278 71v512h105v-548q-60 -50 -166.5 -90.5t-220.5 -40.5 q-100 0 -186.5 18.5t-169 66t-140.5 122t-93.5 193.5t-35.5 273z" />
<glyph unicode="H" horiz-adv-x="1335" d="M203 0v1331h104v-592h721v592h105v-1331h-105v643h-721v-643h-104z" />
<glyph unicode="I" horiz-adv-x="509" d="M203 0v1331h104v-1331h-104z" />
<glyph unicode="J" horiz-adv-x="509" d="M-16 -229q110 37 164.5 112.5t54.5 218.5v1229h104v-1231q0 -155 -71.5 -264t-217.5 -149z" />
<glyph unicode="K" horiz-adv-x="1118" d="M203 0v1331h104v-645l96 27l517 618h124l-557 -653l613 -678h-135l-566 621l-92 -17v-604h-104z" />
<glyph unicode="L" horiz-adv-x="931" d="M203 0v1331h104v-1233h590v-98h-694z" />
<glyph unicode="M" horiz-adv-x="1648" d="M203 0v1331h104l377 -866l147 -361l140 345l364 882h111v-1331h-100v1139l-109 -285l-354 -854h-103l-354 809l-127 297l2 -281v-825h-98z" />
<glyph unicode="N" horiz-adv-x="1417" d="M203 0v1331h102l627 -893l184 -270l-2 190v973h100v-1331h-100l-625 893l-188 276l2 -233v-936h-100z" />
<glyph unicode="O" horiz-adv-x="1429" d="M131 664q0 200 69 354.5t204 243t319 88.5q145 0 255.5 -49.5t180.5 -141t105.5 -216.5t35.5 -281q0 -198 -73.5 -353t-208.5 -242t-309 -87q-146 0 -256.5 48.5t-181 138.5t-105.5 215t-35 282zM242 664q0 -588 467 -588q119 0 212 44.5t151 124t88 185.5t30 232 q0 279 -113.5 435t-353.5 156q-124 0 -216.5 -41.5t-150 -120t-86 -185t-28.5 -242.5z" />
<glyph unicode="P" horiz-adv-x="1087" d="M203 0v1331h348q238 0 343 -102.5t105 -310.5q0 -195 -117 -305.5t-300 -110.5h-275v-502h-104zM307 594h262q69 0 125.5 17t101 53.5t69 98.5t24.5 146q0 169 -79 246.5t-251 77.5h-252v-639z" />
<glyph unicode="Q" horiz-adv-x="1429" d="M131 664q0 200 69 354.5t204 243t319 88.5q145 0 255.5 -49.5t180.5 -141t105.5 -216.5t35.5 -281q0 -225 -94 -393t-258 -240l344 -361l-96 -74l-342 404q-70 -18 -145 -18q-146 0 -256.5 48.5t-181 138.5t-105.5 215t-35 282zM242 664q0 -588 467 -588q119 0 212 44.5 t151 124t88 185.5t30 232q0 279 -113.5 435t-353.5 156q-124 0 -216.5 -41.5t-150 -120t-86 -185t-28.5 -242.5z" />
<glyph unicode="R" horiz-adv-x="1153" d="M203 0v1331h336q241 0 345.5 -94t104.5 -299q0 -137 -70.5 -231t-189.5 -132l338 -575h-125l-321 553h-314v-553h-104zM307 649h250q322 0 322 281q0 166 -78.5 234.5t-253.5 68.5h-240v-584z" />
<glyph unicode="S" horiz-adv-x="1009" d="M113 92l37 111q60 -49 152 -90t181 -41q126 0 217 65.5t91 181.5q0 62 -22.5 111.5t-60 83t-87 60.5t-103.5 50t-108 46.5t-103.5 54.5t-87 68.5t-60 94t-22.5 126.5q0 148 111.5 242t275.5 94q184 0 326 -84l-37 -111q-51 41 -129.5 69.5t-157.5 28.5q-130 0 -205 -62 t-75 -167q0 -57 22.5 -102t60.5 -76t87 -57t103.5 -48.5t108.5 -46.5t103 -56t87 -71.5t60.5 -98.5t22.5 -132q0 -152 -122.5 -254t-297.5 -102q-179 0 -368 112z" />
<glyph unicode="T" horiz-adv-x="1019" d="M35 1233v98h950v-98h-422v-1233h-104v1233h-424z" />
<glyph unicode="U" horiz-adv-x="1361" d="M188 489v842h105v-839q0 -231 90.5 -325.5t298.5 -94.5q209 0 298 103t89 337v819h105v-819q0 -91 -10.5 -161.5t-42 -143t-84 -120t-143.5 -77.5t-214 -30q-122 0 -211.5 26t-142.5 68.5t-84.5 110.5t-42.5 138.5t-11 165.5z" />
<glyph unicode="V" horiz-adv-x="1157" d="M35 1331h106l365 -964l86 -263l80 261l334 966h100l-467 -1331h-102z" />
<glyph unicode="W" horiz-adv-x="1722" d="M61 1331h107l235 -911l72 -307l78 303l258 897h109l272 -905l80 -295l61 299l209 919h100l-321 -1331h-102l-265 872l-96 316l-86 -320l-248 -868h-102z" />
<glyph unicode="X" horiz-adv-x="1120" d="M49 0l455 694l-414 637h115l358 -555l361 555h104l-412 -631l457 -700h-115l-399 618l-401 -618h-109z" />
<glyph unicode="Y" horiz-adv-x="1046" d="M20 1331h111l207 -362l199 -371l180 367l190 366h103l-424 -817v-514h-105v518z" />
<glyph unicode="Z" horiz-adv-x="1064" d="M84 0v78l547 844l205 311h-713v98h827v-86l-551 -848l-196 -299h768v-98h-887z" />
<glyph unicode="[" horiz-adv-x="632" d="M176 -387v1839h369v-86h-266v-1671h266v-82h-369z" />
<glyph unicode="\" horiz-adv-x="897" d="M88 1403h92l629 -1534h-92z" />
<glyph unicode="]" horiz-adv-x="632" d="M88 -305h268v1671h-268v86h369v-1839h-369v82z" />
<glyph unicode="^" horiz-adv-x="1011" d="M63 745l396 588h92l397 -588h-117l-331 500l-332 -500h-105z" />
<glyph unicode="_" horiz-adv-x="1353" d="M88 -96h1178v-92h-1178v92z" />
<glyph unicode="`" horiz-adv-x="921" d="M311 1374l78 76l252 -268l-53 -49z" />
<glyph unicode="a" horiz-adv-x="991" d="M100 242q0 81 36 138t99.5 87t133.5 42.5t155 12.5q82 0 170 -10l2 172q0 122 -57 172.5t-158 50.5q-33 0 -65.5 -5.5t-68 -19t-57.5 -43.5t-22 -73q0 -17 11 -59l-99 -11q-12 38 -12 72q0 101 97 164t227 63q56 0 106 -13.5t96 -44t73.5 -89.5t27.5 -141l-2 -527 q-1 -76 31 -100q20 -15 46 -15q15 0 31 5l12 -82q-31 -8 -63 -8q-62 0 -101.5 35t-48.5 94q-142 -129 -319 -129q-126 0 -203.5 74t-77.5 188zM207 258q0 -93 55 -141.5t154 -48.5q71 0 149.5 40t128.5 95v227q-94 16 -180 16q-60 0 -110.5 -8.5t-97 -28t-73 -58.5 t-26.5 -93z" />
<glyph unicode="b" horiz-adv-x="1095" d="M166 49v1354h100v-518q151 110 314 110q192 0 297.5 -133.5t105.5 -355.5q0 -239 -135.5 -382.5t-360.5 -143.5q-159 0 -321 69zM266 113q102 -45 215 -45q189 0 292.5 114.5t103.5 317.5q0 195 -87 301t-227 106q-144 0 -297 -112v-682z" />
<glyph unicode="c" horiz-adv-x="925" d="M115 467q0 134 36.5 237t101 165.5t146.5 94t179 31.5q138 0 247 -53l-28 -102q-111 67 -226 67q-171 0 -260.5 -114.5t-89.5 -323.5q0 -185 91.5 -293t267.5 -108q64 0 122 22.5t93 52.5l30 -92q-50 -33 -122 -52t-146 -19q-207 0 -324.5 128.5t-117.5 358.5z" />
<glyph unicode="d" horiz-adv-x="1101" d="M113 469q0 240 132.5 383t356.5 143q104 0 227 -47v455h101v-1403h-99v111q-165 -131 -315 -131q-192 0 -297.5 133.5t-105.5 355.5zM219 475q0 -195 86.5 -301t226.5 -106q139 0 297 133v645q-101 61 -227 61q-184 0 -283.5 -114.5t-99.5 -317.5z" />
<glyph unicode="e" horiz-adv-x="1003" d="M119 487q0 238 114.5 373t296.5 135q357 0 357 -448v-60h-662q0 -202 90.5 -310.5t268.5 -108.5q79 0 145.5 30t108.5 66l30 -92q-141 -92 -307 -92q-211 0 -326.5 127.5t-115.5 379.5zM227 569h557v22q0 141 -60 225q-66 90 -198 91q-134 0 -209.5 -86.5t-89.5 -251.5z " />
<glyph unicode="f" horiz-adv-x="665" d="M63 881v71l166 9v75q0 198 83.5 292.5t230.5 94.5q47 0 98 -9t76 -21l-27 -105q-73 47 -151 47q-113 0 -161 -70.5t-48 -215.5v-88h299v-80h-299v-881h-101v881h-166z" />
<glyph unicode="g" horiz-adv-x="1048" d="M63 -211q0 82 60 154t170 114q-33 15 -53.5 46t-20.5 67q0 96 168 158q-139 26 -213 116t-74 203q0 143 109 245.5t278 102.5q49 0 146.5 -18t216.5 -19h156v-79h-203q80 -89 80 -217t-97 -224.5t-243 -115.5q-234 -71 -234 -132q0 -19 15 -33t39.5 -22t62.5 -13.5 t76.5 -9t88.5 -6.5h3q56 -4 98.5 -9t90.5 -15t81.5 -25.5t62.5 -37.5t43.5 -55t14.5 -75q0 -67 -34 -129.5t-96 -112.5t-157.5 -80t-208.5 -30q-82 0 -155.5 14.5t-135.5 43.5t-98.5 79t-36.5 115zM166 -190q0 -49 29 -87t78.5 -60t109 -33t125.5 -11q165 0 269 74.5 t104 177.5q0 134 -301 149q-140 8 -191 15q-223 -82 -223 -225zM203 649q0 -53 18 -97t46.5 -72.5t66.5 -48t76.5 -28t76.5 -8.5q65 0 130.5 28t114 90t48.5 144q0 122 -84.5 187t-208.5 65q-119 0 -201.5 -67.5t-82.5 -192.5z" />
<glyph unicode="h" horiz-adv-x="1097" d="M172 0v1403h100v-531q82 61 167 92t157 31q340 0 340 -336v-659h-100v618q0 158 -57.5 222.5t-184.5 64.5q-154 0 -322 -121v-784h-100z" />
<glyph unicode="i" horiz-adv-x="444" d="M154 1313q0 31 20 52t51 21t52.5 -21t21.5 -52t-21.5 -51.5t-52.5 -20.5t-51 20.5t-20 51.5zM172 0v975h100v-975h-100z" />
<glyph unicode="j" horiz-adv-x="444" d="M-113 -369q41 3 76 11.5t75 30.5t68.5 56t47 92t18.5 134v1020h100v-1024q0 -88 -25 -160.5t-64.5 -118.5t-89 -77t-97.5 -43q-41 -11 -80 -11h-12zM154 1313q0 31 20 52t51 21t52.5 -21t21.5 -52t-21.5 -51.5t-52.5 -20.5t-51 20.5t-20 51.5z" />
<glyph unicode="k" horiz-adv-x="933" d="M172 0v1403h100v-883l56 15l393 440h123l-416 -457l479 -518h-135l-424 457l-76 -15v-442h-100z" />
<glyph unicode="l" horiz-adv-x="444" d="M172 0v1403h100v-1403h-100z" />
<glyph unicode="m" horiz-adv-x="1724" d="M172 0v975h98v-103q163 123 308 123q219 0 296 -143q177 143 345 143q50 0 93.5 -7t91.5 -29t81.5 -57.5t55.5 -97.5t22 -145v-659h-101v618q0 158 -59 223.5t-186 65.5q-144 0 -314 -133q15 -62 15 -115v-659h-101v618q0 159 -57.5 224t-184.5 65q-142 0 -303 -123v-784 h-100z" />
<glyph unicode="n" horiz-adv-x="1097" d="M172 0v975h98v-103q82 61 168 92t158 31q340 0 340 -336v-659h-100v618q0 159 -57.5 224t-184.5 65q-151 0 -322 -123v-784h-100z" />
<glyph unicode="o" horiz-adv-x="1105" d="M117 487q0 228 116.5 368t317.5 140q211 0 324.5 -131t113.5 -377q0 -81 -17 -155t-52.5 -138.5t-86.5 -112t-123.5 -74.5t-158.5 -27q-207 0 -320.5 130.5t-113.5 376.5zM223 487q0 -419 328 -419q90 0 156 31.5t103.5 90t55 132t17.5 165.5q0 89 -17.5 162t-55 132.5 t-103.5 92.5t-156 33q-89 0 -154.5 -33t-102.5 -92.5t-54 -132.5t-17 -162z" />
<glyph unicode="p" horiz-adv-x="1101" d="M172 -451v1426h98v-111q165 131 316 131q192 0 297.5 -133.5t105.5 -355.5q0 -239 -135.5 -382.5t-359.5 -143.5q-106 0 -222 43v-474h-100zM272 125q99 -57 222 -57q186 0 287.5 114.5t101.5 317.5q0 195 -87 301t-227 106q-139 0 -297 -133v-649z" />
<glyph unicode="q" horiz-adv-x="1095" d="M113 469q0 240 132.5 383t356.5 143q159 0 328 -75v-1371h-101v560q-162 -129 -313 -129q-192 0 -297.5 133.5t-105.5 355.5zM221 475q0 -195 85.5 -300t225.5 -105q141 0 297 131v655q-108 51 -227 51q-184 0 -282.5 -114.5t-98.5 -317.5z" />
<glyph unicode="r" horiz-adv-x="677" d="M172 0v975h98v-164q64 84 145 128t160 44q42 0 62 -2l-8 -102q-21 8 -56 8q-150 0 -301 -164v-723h-100z" />
<glyph unicode="s" horiz-adv-x="833" d="M100 63l35 101q36 -34 107 -65t145 -31q246 0 246 176q0 52 -28 91t-72.5 63.5t-98.5 45.5t-108 44.5t-98.5 52.5t-72.5 77t-28 111q0 59 21.5 106.5t54.5 76t75 48.5t79.5 27.5t70.5 7.5q150 0 262 -67l-28 -103q-26 28 -90 55t-148 27q-31 0 -63.5 -8.5t-64 -27 t-51.5 -53.5t-20 -81q0 -43 28 -77.5t73 -58t99 -45.5t108 -47.5t99 -57.5t73 -81.5t28 -113.5q0 -76 -30 -131.5t-81.5 -86t-110 -44.5t-124.5 -14q-74 0 -150.5 23t-136.5 60z" />
<glyph unicode="t" horiz-adv-x="741" d="M63 881v75l152 7l14 268h84v-270h351v-80h-351v-564q0 -139 47.5 -193t143.5 -54q101 0 172 61l31 -92q-101 -59 -226 -59q-65 0 -112 16t-83 53t-54.5 103.5t-18.5 162.5v566h-150z" />
<glyph unicode="u" horiz-adv-x="1093" d="M162 313v662h100v-621q0 -158 59.5 -223t186.5 -65q144 0 313 122v787h101v-975h-99v100q-165 -123 -317 -123q-50 0 -93.5 7t-91.5 29t-81.5 57.5t-55.5 97.5t-22 145z" />
<glyph unicode="v" horiz-adv-x="983" d="M45 975h102l271 -690l76 -199l75 197l265 692h104l-391 -975h-121z" />
<glyph unicode="w" horiz-adv-x="1544" d="M55 975h99l190 -639l70 -250l92 256l225 633h96l236 -686l67 -203l60 213l201 676h98l-301 -975h-123l-225 662l-66 200l-72 -207l-237 -655h-117z" />
<glyph unicode="x" horiz-adv-x="929" d="M51 0l363 514l-318 461h105l266 -387l270 387h99l-320 -455l361 -520h-107l-307 446l-313 -446h-99z" />
<glyph unicode="y" horiz-adv-x="980" d="M43 975h100l246 -602l111 -264l104 268l236 598h96l-574 -1426h-92l174 443z" />
<glyph unicode="z" horiz-adv-x="925" d="M84 0v59l600 826h-567v90h700v-60l-604 -827h621v-88h-750z" />
<glyph unicode="{" horiz-adv-x="716" d="M88 496v77q31 0 45 2q148 13 148 148v426q0 41 2 71.5t9.5 65.5t20.5 59.5t35 48.5t53 39t75.5 24t101.5 9h51v-71h-51q-49 0 -83.5 -5.5t-57 -20.5t-35 -30.5t-18.5 -48.5t-7.5 -60.5t-1.5 -78.5v-309q0 -139 -31 -211t-113 -94q82 -22 113 -96.5t31 -213.5v-309 q0 -51 1.5 -78.5t7.5 -60.5t18.5 -48.5t35 -30.5t57 -20.5t83.5 -5.5h51v-71h-51q-57 0 -101.5 9t-75.5 24t-53 39t-35 48.5t-20.5 59.5t-9.5 65.5t-2 71.5v426q0 132 -144 148q-14 2 -49 2z" />
<glyph unicode="|" horiz-adv-x="501" d="M203 0v1403h96v-1403h-96z" />
<glyph unicode="}" horiz-adv-x="716" d="M88 -326h51q49 0 83.5 5.5t57 20.5t35 30.5t18.5 48.5t7.5 60.5t1.5 78.5v309q0 140 30.5 214t112.5 96q-82 22 -112.5 94t-30.5 211v309q0 51 -1.5 78.5t-7.5 60.5t-18.5 48.5t-35 30.5t-57 20.5t-83.5 5.5h-51v71h51q57 0 101.5 -9t75.5 -24t53 -39t35 -48.5 t20.5 -59.5t9.5 -65.5t2 -71.5v-426q0 -76 43 -110.5t125 -39.5h25v-77h-29q-164 -10 -164 -150v-426q0 -41 -2 -71.5t-9.5 -65.5t-20.5 -59.5t-35 -48.5t-53 -39t-75.5 -24t-101.5 -9h-51v71z" />
<glyph unicode="~" horiz-adv-x="1275" d="M96 545q126 203 297 203q68 0 141 -30t125.5 -65.5t114.5 -65.5t109 -30q65 0 119.5 51t105.5 146l72 -54q-74 -127 -150.5 -180t-169.5 -53q-47 0 -96 20t-93 48.5t-88.5 57.5t-98 49t-105.5 20q-108 0 -215 -166z" />
<glyph unicode="&#xa1;" horiz-adv-x="462" d="M152 844q0 36 22 55t55 19q35 0 55.5 -18.5t20.5 -55.5q0 -34 -20.5 -52t-55.5 -18q-33 0 -55 17.5t-22 52.5zM180 35l13 491h75l17 -491v-469h-105v469z" />
<glyph unicode="&#xa2;" horiz-adv-x="942" d="M121 467q0 232 104.5 364t274.5 158v170h86v-164q136 0 245 -53l-28 -102q-106 62 -217 65v-837q64 0 122 22.5t93 52.5l30 -92q-96 -65 -245 -71v-125h-86v129q-180 19 -279.5 145t-99.5 338zM227 469q0 -160 69.5 -264.5t203.5 -130.5v825q-134 -25 -203.5 -135.5 t-69.5 -294.5z" />
<glyph unicode="&#xa3;" horiz-adv-x="1251" d="M106 0v80q65 10 116 56.5t76.5 110.5t25.5 132v244h-187v79h187v177q0 125 34 218.5t95 147.5t136 79.5t165 25.5q79 0 158.5 -31.5t140.5 -91.5l-72 -80q-56 64 -113 88.5t-131 24.5q-157 0 -233 -87.5t-76 -289.5v-181h506v-79h-506v-154q0 -132 -35.5 -219 t-132.5 -152h565q62 0 109 9t78.5 27.5t51.5 38.5t38 48l63 -76q-33 -55 -105.5 -100t-164.5 -45h-789z" />
<glyph unicode="&#xa4;" horiz-adv-x="1118" d="M86 102l225 232q-69 88 -69 201q0 111 69 196l-225 232l49 55l230 -234q90 66 192 66q104 0 195 -68l231 236l49 -55l-231 -234q69 -78 69 -194t-69 -197l231 -236l-55 -41l-225 226q-85 -68 -195 -68t-195 66l-221 -224zM334 535q0 -102 64.5 -171t158.5 -69t158.5 70 t64.5 170q0 106 -63.5 170.5t-159.5 64.5t-159.5 -64.5t-63.5 -170.5z" />
<glyph unicode="&#xa5;" d="M86 1331h111l206 -362l199 -371l180 367l191 366h102l-383 -735h307v-80h-348v-227h348v-80h-348v-209h-104v209h-344v80h344v227h-344v80h299z" />
<glyph unicode="&#xa6;" horiz-adv-x="557" d="M229 0v602h99v-602h-99zM229 844v559h99v-559h-99z" />
<glyph unicode="&#xa7;" horiz-adv-x="1175" d="M88 -410l8 125q39 -27 93 -46t106 -19q56 0 104.5 10.5t91 33.5t67 65.5t24.5 99.5q0 63 -38 170t-92.5 223t-108.5 232t-92 223.5t-38 171.5q0 92 43.5 172t112.5 134t154.5 92.5t168.5 56.5t156 18q133 0 239 -35l-8 -127q-145 92 -256 92q-94 0 -144 -55t-50 -148 q0 -68 57 -218t125 -296t125 -296.5t57 -219.5q0 -92 -51 -173t-130 -136t-175 -95t-186 -58.5t-164 -18.5q-104 0 -199 22zM307 911q0 -70 37.5 -177t91.5 -219.5t107.5 -225t91 -220.5t37.5 -180q0 -99 -49 -161q146 57 212 132t66 173q0 66 -36.5 172.5t-89 221 t-105 230.5t-89 229t-36.5 189q0 94 61 166q-141 -57 -220 -148t-79 -182z" />
<glyph unicode="&#xa8;" horiz-adv-x="921" d="M201 1288q0 31 20.5 52.5t50.5 21.5q31 0 52.5 -21.5t21.5 -52.5q0 -30 -21.5 -50.5t-52.5 -20.5t-51 20t-20 51zM545 1288q0 31 20.5 52.5t50.5 21.5q31 0 52.5 -21.5t21.5 -52.5q0 -30 -21.5 -50.5t-52.5 -20.5t-51 20t-20 51z" />
<glyph unicode="&#xa9;" horiz-adv-x="1533" d="M123 641q0 134 51 256t137 209.5t204 139.5t247 52q133 0 253 -51.5t207 -139.5t138 -210t51 -256q0 -133 -51 -254t-138 -209t-207 -140t-253 -52q-129 0 -247 52t-204 140t-137 209t-51 254zM205 641q0 -125 44.5 -234.5t119.5 -186.5t177.5 -121t215.5 -44 q116 0 221 45t181 122.5t120.5 186.5t44.5 232q0 157 -75.5 292t-206.5 214.5t-285 79.5q-113 0 -215.5 -44t-177.5 -121t-119.5 -186.5t-44.5 -234.5zM379 637q0 206 116 313t318 107q131 0 219 -41l-26 -78q-70 51 -191 51q-173 0 -261.5 -90t-88.5 -260q0 -174 89 -258 t255 -84q66 0 127 13.5t90 29.5l21 -70q-93 -41 -240 -41q-97 0 -173 22t-134.5 69.5t-89.5 127.5t-31 189z" />
<glyph unicode="&#xaa;" horiz-adv-x="931" d="M109 745q0 55 22 97.5t58 68.5t87 42.5t102.5 23t110.5 6.5q61 0 113 -6q21 0 31 -2l2 125q0 87 -52 128.5t-139 41.5q-27 0 -55.5 -5.5t-58 -16.5t-49.5 -34t-21 -53q0 -19 6 -43l-88 -8q-10 22 -10 55q-1 83 84.5 134t200.5 51q50 0 95 -11t87.5 -35.5t68 -72 t25.5 -113.5l-2 -422q0 -88 55 -92q13 0 33 4l10 -65q-30 -6 -59 -6q-53 0 -86.5 27.5t-42.5 74.5q-124 -102 -281 -102q-111 0 -179 58.5t-68 149.5zM211 760q0 -146 176 -146q63 0 132.5 29.5t113.5 71.5v182q-75 14 -164 14q-258 -4 -258 -151z" />
<glyph unicode="&#xab;" horiz-adv-x="909" d="M86 479l246 473h100l-237 -465l237 -481h-100zM475 479l246 473h100l-237 -465l237 -481h-100z" />
<glyph unicode="&#xac;" horiz-adv-x="1521" d="M137 571v86h1221v-530h-90v444h-1131z" />
<glyph unicode="&#xad;" horiz-adv-x="901" d="M199 481v99h503v-99h-503z" />
<glyph unicode="&#xae;" horiz-adv-x="1234" d="M125 846q0 137 66 253t178.5 183.5t244.5 67.5q135 0 249 -67.5t180.5 -183.5t66.5 -253q0 -207 -145.5 -354.5t-350.5 -147.5q-132 0 -244.5 67.5t-178.5 183t-66 251.5zM197 846q0 -193 120 -316.5t297 -123.5q181 0 302.5 124.5t121.5 315.5q0 184 -122.5 312 t-301.5 128q-177 0 -297 -123.5t-120 -316.5zM432 514v684h184q124 0 178 -52.5t54 -160.5q0 -82 -40.5 -134.5t-109.5 -70.5l150 -266h-78l-143 258h-127v-258h-68zM500 829h118q76 0 117 34t41 118q0 87 -36.5 121.5t-125.5 34.5h-114v-308z" />
<glyph unicode="&#xaf;" horiz-adv-x="921" d="M221 1237v88h479v-88h-479z" />
<glyph unicode="&#xb0;" horiz-adv-x="772" d="M100 1079q0 120 80.5 195.5t208.5 75.5q130 0 206.5 -74t76.5 -197q0 -125 -76.5 -199.5t-206.5 -74.5q-133 0 -211 74.5t-78 199.5zM184 1079q0 -89 56.5 -147t148.5 -58q95 0 146 57t51 148q0 86 -54 142.5t-143 56.5q-96 0 -150.5 -56t-54.5 -143z" />
<glyph unicode="&#xb1;" horiz-adv-x="1089" d="M129 20v86h832v-86h-832zM129 571v86h369v336h92v-336h371v-86h-371v-331h-92v331h-369z" />
<glyph unicode="&#xb2;" horiz-adv-x="593" d="M47 778v64q75 58 155 136t146 172.5t66 156.5q0 57 -36 87.5t-87 30.5q-36 0 -77.5 -22t-74.5 -57l-53 57q41 46 99 74t116 28q84 0 142.5 -49.5t58.5 -142.5q0 -92 -99.5 -222t-224.5 -235h359v-78h-490z" />
<glyph unicode="&#xb3;" horiz-adv-x="581" d="M45 840l51 69q33 -28 79 -46.5t87 -18.5q64 0 112 34.5t48 92.5q0 131 -260 149v68q92 7 159.5 44t67.5 99q0 43 -33.5 68.5t-85.5 25.5q-77 0 -151 -55l-39 70q10 7 28 18t70.5 29t100.5 18q86 0 142 -47t56 -117q0 -124 -131 -178q80 -22 123 -71t43 -119 q0 -85 -64 -145t-196 -60q-61 0 -123.5 25.5t-83.5 46.5z" />
<glyph unicode="&#xb4;" horiz-adv-x="921" d="M311 1182l252 268l78 -76l-276 -241z" />
<glyph unicode="&#xb5;" horiz-adv-x="1091" d="M147 -451v1426h101v-621q0 -158 59 -222t187 -64q146 0 313 120v787h100v-975h-98v100q-165 -123 -317 -123q-170 0 -261 91q17 -85 17 -242v-277h-101z" />
<glyph unicode="&#xb6;" horiz-adv-x="1095" d="M88 852q0 95 33.5 179t99.5 152t177 108t253 40v-1782h-102v820q-214 49 -337.5 172.5t-123.5 310.5zM817 -451v1782h103v-1782h-103z" />
<glyph unicode="&#xb7;" horiz-adv-x="479" d="M164 600q0 33 21 51.5t55 18.5t55.5 -18t21.5 -52q0 -38 -21 -56t-56 -18q-76 0 -76 74z" />
<glyph unicode="&#xb8;" horiz-adv-x="921" d="M260 -412l41 90q20 -23 60.5 -40t82.5 -17q57 0 87 24t30 60q0 48 -49.5 81.5t-142.5 37.5l63 205h84l-43 -150q90 -13 137 -62t47 -110q0 -68 -60.5 -119t-162.5 -51q-99 0 -174 51z" />
<glyph unicode="&#xb9;" horiz-adv-x="391" d="M29 1411v80l250 14v-727h-89v641z" />
<glyph unicode="&#xba;" horiz-adv-x="980" d="M106 944q0 183 102.5 294.5t280.5 111.5q186 0 287 -105t101 -301q0 -81 -24.5 -153.5t-71.5 -129.5t-122.5 -90.5t-169.5 -33.5q-183 0 -283 105t-100 302zM209 944q0 -159 63 -242.5t217 -83.5t218.5 86t64.5 240q0 326 -283 326q-280 0 -280 -326z" />
<glyph unicode="&#xbb;" horiz-adv-x="909" d="M88 6l238 481l-238 465h100l246 -473l-246 -473h-100zM477 6l238 481l-238 465h101l245 -473l-245 -473h-101z" />
<glyph unicode="&#xbc;" horiz-adv-x="1521" d="M88 1255v80l250 15v-727h-88v641zM287 125l964 1165l58 -51l-963 -1159zM885 190v62l348 465h84v-451h108v-76h-108v-188h-88v188h-344zM989 266h240v326z" />
<glyph unicode="&#xbd;" horiz-adv-x="1607" d="M88 1255v80l250 15v-727h-88v641zM287 125l964 1165l58 -51l-963 -1159zM1014 0v63q75 58 154.5 136t145.5 172.5t66 156.5q0 57 -36 88t-87 31q-36 0 -76.5 -22.5t-74.5 -57.5l-53 58q41 46 99 74t116 28q84 0 142 -49.5t58 -142.5q0 -63 -53 -151.5t-123 -164.5 t-147 -141h358v-78h-489z" />
<glyph unicode="&#xbe;" horiz-adv-x="1611" d="M98 684l52 70q33 -28 79 -47t86 -19q64 0 112 34.5t48 92.5q0 132 -260 150v67q92 7 159.5 44.5t67.5 99.5q0 43 -33 68.5t-85 25.5q-77 0 -152 -56l-39 70q10 7 28 18t70.5 29.5t100.5 18.5q86 0 142 -47t56 -117q0 -124 -131 -178q80 -22 123 -71.5t43 -119.5 q0 -85 -64 -145t-196 -60q-61 0 -123.5 25.5t-83.5 46.5zM362 125l965 1165l57 -51l-962 -1159zM975 190v62l348 465h84v-451h109v-76h-109v-188h-88v188h-344zM1079 266h240v326z" />
<glyph unicode="&#xbf;" horiz-adv-x="913" d="M88 -174q0 63 24.5 117t63 93t85.5 74.5t94 67.5t85.5 64t63 73t24.5 86q0 52 -39 123l111 29q35 -67 35 -154q0 -52 -24 -98.5t-63 -82.5t-85.5 -70l-93 -68t-85.5 -69.5t-63 -81.5t-24 -97q0 -90 78.5 -138t199.5 -48q184 0 293 118l57 -83q-63 -57 -159.5 -94.5 t-200.5 -37.5q-170 0 -273.5 77t-103.5 200zM444 846q0 36 22 55t56 19q35 0 55.5 -18.5t20.5 -55.5q0 -34 -20.5 -52t-55.5 -18q-34 0 -56 17.5t-22 52.5z" />
<glyph unicode="&#xc0;" d="M45 0l483 1331h103l485 -1331h-110l-138 383h-583l-138 -383h-102zM309 1618l62 94l307 -215l-41 -57zM317 475h519l-177 496l-84 248l-79 -246z" />
<glyph unicode="&#xc1;" d="M45 0l483 1331h103l485 -1331h-110l-138 383h-583l-138 -383h-102zM317 475h519l-177 496l-84 248l-79 -246zM479 1497l307 215l62 -94l-328 -178z" />
<glyph unicode="&#xc2;" d="M45 0l483 1331h103l485 -1331h-110l-138 383h-583l-138 -383h-102zM313 1520l242 200h70l239 -198l-59 -68l-219 180l-215 -180zM317 475h519l-177 496l-84 248l-79 -246z" />
<glyph unicode="&#xc3;" d="M45 0l483 1331h103l485 -1331h-110l-138 383h-583l-138 -383h-102zM266 1550q97 111 185 111q60 0 140.5 -31t117.5 -31q83 0 137 66l39 -45q-83 -107 -178 -107q-45 0 -129 31t-123 31q-87 0 -146 -72zM317 475h519l-177 496l-84 248l-79 -246z" />
<glyph unicode="&#xc4;" d="M45 0l483 1331h103l485 -1331h-110l-138 383h-583l-138 -383h-102zM317 475h519l-177 496l-84 248l-79 -246zM332 1583q0 31 20.5 52.5t50.5 21.5q31 0 52.5 -21.5t21.5 -52.5t-21.5 -51.5t-52.5 -20.5t-51 20.5t-20 51.5zM676 1583q0 31 20.5 52.5t51.5 21.5t52 -21.5 t21 -52.5t-21 -51.5t-52 -20.5t-51.5 20.5t-20.5 51.5z" />
<glyph unicode="&#xc5;" d="M45 0l483 1331h103l485 -1331h-110l-138 383h-583l-138 -383h-102zM317 475h519l-177 496l-84 248l-79 -246zM377 1602q0 85 59 138.5t148 53.5q91 0 145.5 -51.5t54.5 -140.5q0 -83 -57 -139t-147 -56q-89 0 -146 54t-57 141zM455 1602q0 -63 33 -97.5t92 -34.5 q122 0 122 132q0 131 -122 131q-62 0 -93.5 -34.5t-31.5 -96.5z" />
<glyph unicode="&#xc6;" horiz-adv-x="1656" d="M25 0l729 1331h768v-98h-631v-500h557v-96h-557v-539h631v-98h-736v383h-452l-207 -383h-102zM385 475h401v739z" />
<glyph unicode="&#xc7;" horiz-adv-x="1171" d="M129 653q0 333 167 515t452 182q94 0 177.5 -20t131.5 -48l-37 -111q-47 38 -120 60t-150 22q-258 0 -384 -154.5t-126 -441.5q0 -295 123.5 -438t377.5 -143q96 0 182.5 20.5t125.5 46.5l28 -94q-123 -66 -332 -69l-28 -101q90 -13 137 -62t47 -110q0 -68 -60.5 -119 t-162.5 -51q-99 0 -174 51l41 90q20 -23 60.5 -40t82.5 -17q57 0 87 24t30 60q0 48 -50 81.5t-143 37.5l50 160q-122 9 -217 50.5t-167 120t-110.5 204.5t-38.5 294z" />
<glyph unicode="&#xc8;" horiz-adv-x="1073" d="M203 0v1331h735v-98h-631v-500h557v-96h-557v-539h631v-98h-735zM356 1618l62 94l307 -215l-41 -57z" />
<glyph unicode="&#xc9;" horiz-adv-x="1073" d="M203 0v1331h735v-98h-631v-500h557v-96h-557v-539h631v-98h-735zM426 1497l307 215l62 -94l-328 -178z" />
<glyph unicode="&#xca;" horiz-adv-x="1073" d="M203 0v1331h735v-98h-631v-500h557v-96h-557v-539h631v-98h-735zM305 1520l242 200h69l240 -198l-59 -68l-219 180l-216 -180z" />
<glyph unicode="&#xcb;" horiz-adv-x="1073" d="M203 0v1331h735v-98h-631v-500h557v-96h-557v-539h631v-98h-735zM330 1583q0 31 20.5 52.5t50.5 21.5q31 0 52.5 -21.5t21.5 -52.5t-21.5 -51.5t-52.5 -20.5t-51 20.5t-20 51.5zM674 1583q0 31 20.5 52.5t50.5 21.5q31 0 52.5 -21.5t21.5 -52.5t-21.5 -51.5t-52.5 -20.5 t-51 20.5t-20 51.5z" />
<glyph unicode="&#xcc;" horiz-adv-x="509" d="M-14 1618l61 94l307 -215l-41 -57zM203 0v1331h104v-1331h-104z" />
<glyph unicode="&#xcd;" horiz-adv-x="509" d="M123 1497l307 215l62 -94l-328 -178zM203 0v1331h104v-1331h-104z" />
<glyph unicode="&#xce;" horiz-adv-x="509" d="M-20 1520l241 200h70l239 -198l-59 -68l-219 180l-215 -180zM203 0v1331h104v-1331h-104z" />
<glyph unicode="&#xcf;" horiz-adv-x="509" d="M10 1583q0 31 20.5 52.5t51.5 21.5t52.5 -21.5t21.5 -52.5t-21.5 -51.5t-52.5 -20.5t-51.5 20.5t-20.5 51.5zM203 0v1331h104v-1331h-104zM354 1583q0 31 20.5 52.5t51.5 21.5t52.5 -21.5t21.5 -52.5t-21.5 -51.5t-52.5 -20.5t-51.5 20.5t-20.5 51.5z" />
<glyph unicode="&#xd0;" horiz-adv-x="1361" d="M49 637v86h154v608h446q132 0 235 -38t167 -100t105 -149t57 -177t16 -193q0 -120 -15.5 -215.5t-56.5 -183.5t-107 -147t-171.5 -93.5t-245.5 -34.5h-430v637h-154zM307 98h344q118 0 204 30.5t136 79.5t79 126t38.5 153.5t9.5 178.5q0 87 -12.5 164.5t-46 153 t-84.5 129.5t-134 87t-190 33h-344v-510h283v-86h-283v-539z" />
<glyph unicode="&#xd1;" horiz-adv-x="1417" d="M203 0v1331h102l627 -893l184 -270l-2 190v973h100v-1331h-100l-625 893l-188 276l2 -233v-936h-100zM436 1550q97 111 185 111q60 0 140.5 -31t117.5 -31q83 0 137 66l39 -45q-83 -107 -178 -107q-45 0 -129 31t-123 31q-87 0 -146 -72z" />
<glyph unicode="&#xd2;" horiz-adv-x="1429" d="M131 664q0 200 69 354.5t204 243t319 88.5q145 0 255.5 -49.5t180.5 -141t105.5 -216.5t35.5 -281q0 -198 -73.5 -353t-208.5 -242t-309 -87q-146 0 -256.5 48.5t-181 138.5t-105.5 215t-35 282zM242 664q0 -588 467 -588q119 0 212 44.5t151 124t88 185.5t30 232 q0 279 -113.5 435t-353.5 156q-124 0 -216.5 -41.5t-150 -120t-86 -185t-28.5 -242.5zM485 1618l62 94l307 -215l-41 -57z" />
<glyph unicode="&#xd3;" horiz-adv-x="1429" d="M131 664q0 200 69 354.5t204 243t319 88.5q145 0 255.5 -49.5t180.5 -141t105.5 -216.5t35.5 -281q0 -198 -73.5 -353t-208.5 -242t-309 -87q-146 0 -256.5 48.5t-181 138.5t-105.5 215t-35 282zM242 664q0 -588 467 -588q119 0 212 44.5t151 124t88 185.5t30 232 q0 279 -113.5 435t-353.5 156q-124 0 -216.5 -41.5t-150 -120t-86 -185t-28.5 -242.5zM584 1497l307 215l61 -94l-327 -178z" />
<glyph unicode="&#xd4;" horiz-adv-x="1429" d="M131 664q0 200 69 354.5t204 243t319 88.5q145 0 255.5 -49.5t180.5 -141t105.5 -216.5t35.5 -281q0 -198 -73.5 -353t-208.5 -242t-309 -87q-146 0 -256.5 48.5t-181 138.5t-105.5 215t-35 282zM242 664q0 -588 467 -588q119 0 212 44.5t151 124t88 185.5t30 232 q0 279 -113.5 435t-353.5 156q-124 0 -216.5 -41.5t-150 -120t-86 -185t-28.5 -242.5zM457 1520l241 200h70l240 -198l-60 -68l-219 180l-215 -180z" />
<glyph unicode="&#xd5;" horiz-adv-x="1429" d="M131 664q0 200 69 354.5t204 243t319 88.5q145 0 255.5 -49.5t180.5 -141t105.5 -216.5t35.5 -281q0 -198 -73.5 -353t-208.5 -242t-309 -87q-146 0 -256.5 48.5t-181 138.5t-105.5 215t-35 282zM242 664q0 -588 467 -588q119 0 212 44.5t151 124t88 185.5t30 232 q0 279 -113.5 435t-353.5 156q-124 0 -216.5 -41.5t-150 -120t-86 -185t-28.5 -242.5zM416 1550q97 111 184 111q60 0 140.5 -31t117.5 -31q83 0 137 66l39 -45q-83 -107 -178 -107q-45 0 -129 31t-123 31q-86 0 -145 -72z" />
<glyph unicode="&#xd6;" horiz-adv-x="1429" d="M131 664q0 200 69 354.5t204 243t319 88.5q145 0 255.5 -49.5t180.5 -141t105.5 -216.5t35.5 -281q0 -198 -73.5 -353t-208.5 -242t-309 -87q-146 0 -256.5 48.5t-181 138.5t-105.5 215t-35 282zM242 664q0 -588 467 -588q119 0 212 44.5t151 124t88 185.5t30 232 q0 279 -113.5 435t-353.5 156q-124 0 -216.5 -41.5t-150 -120t-86 -185t-28.5 -242.5zM469 1583q0 31 20.5 52.5t51.5 21.5t52 -21.5t21 -52.5t-21 -51.5t-52 -20.5t-51.5 20.5t-20.5 51.5zM813 1583q0 31 20.5 52.5t51.5 21.5t52 -21.5t21 -52.5t-21 -51.5t-52 -20.5 t-51.5 20.5t-20.5 51.5z" />
<glyph unicode="&#xd7;" horiz-adv-x="913" d="M129 346l264 244l-262 241l64 58l262 -240l262 244l63 -59l-264 -238l266 -250l-63 -57l-268 246l-260 -244z" />
<glyph unicode="&#xd8;" horiz-adv-x="1429" d="M131 0l137 170q-137 173 -137 494q0 200 69 354.5t204 243t319 88.5q239 0 381 -133l92 114h104l-139 -174q139 -179 139 -495q0 -198 -73.5 -353t-208.5 -242t-309 -87q-238 0 -385 131l-88 -111h-105zM242 664q0 -268 92 -410l706 883q-113 116 -317 116 q-124 0 -216.5 -41.5t-150 -120t-86 -185t-28.5 -242.5zM387 188q112 -112 322 -112q119 0 212 44.5t151 124t88 185.5t30 232q0 261 -96 409z" />
<glyph unicode="&#xd9;" horiz-adv-x="1361" d="M188 489v842h105v-839q0 -231 90.5 -325.5t298.5 -94.5q209 0 298 103t89 337v819h105v-819q0 -91 -10.5 -161.5t-42 -143t-84 -120t-143.5 -77.5t-214 -30q-122 0 -211.5 26t-142.5 68.5t-84.5 110.5t-42.5 138.5t-11 165.5zM442 1618l62 94l307 -215l-41 -57z" />
<glyph unicode="&#xda;" horiz-adv-x="1361" d="M188 489v842h105v-839q0 -231 90.5 -325.5t298.5 -94.5q209 0 298 103t89 337v819h105v-819q0 -91 -10.5 -161.5t-42 -143t-84 -120t-143.5 -77.5t-214 -30q-122 0 -211.5 26t-142.5 68.5t-84.5 110.5t-42.5 138.5t-11 165.5zM553 1497l307 215l62 -94l-328 -178z" />
<glyph unicode="&#xdb;" horiz-adv-x="1361" d="M188 489v842h105v-839q0 -231 90.5 -325.5t298.5 -94.5q209 0 298 103t89 337v819h105v-819q0 -91 -10.5 -161.5t-42 -143t-84 -120t-143.5 -77.5t-214 -30q-122 0 -211.5 26t-142.5 68.5t-84.5 110.5t-42.5 138.5t-11 165.5zM410 1520l241 200h70l240 -198l-60 -68 l-219 180l-215 -180z" />
<glyph unicode="&#xdc;" horiz-adv-x="1361" d="M188 489v842h105v-839q0 -231 90.5 -325.5t298.5 -94.5q209 0 298 103t89 337v819h105v-819q0 -91 -10.5 -161.5t-42 -143t-84 -120t-143.5 -77.5t-214 -30q-122 0 -211.5 26t-142.5 68.5t-84.5 110.5t-42.5 138.5t-11 165.5zM440 1583q0 31 20.5 52.5t51.5 21.5 t52.5 -21.5t21.5 -52.5t-21.5 -51.5t-52.5 -20.5t-51.5 20.5t-20.5 51.5zM784 1583q0 31 20.5 52.5t51.5 21.5t52.5 -21.5t21.5 -52.5t-21.5 -51.5t-52.5 -20.5t-51.5 20.5t-20.5 51.5z" />
<glyph unicode="&#xdd;" horiz-adv-x="1046" d="M20 1331h111l207 -362l199 -371l180 367l190 366h103l-424 -817v-514h-105v518zM399 1497l308 215l61 -94l-328 -178z" />
<glyph unicode="&#xde;" horiz-adv-x="1091" d="M203 0v1331h104v-198h244q238 0 343 -102.5t105 -311.5q0 -195 -117 -305.5t-300 -110.5h-275v-303h-104zM307 395h262q69 0 125.5 17.5t101 53.5t69 98.5t24.5 146.5q0 169 -79 246t-251 77h-252v-639z" />
<glyph unicode="&#xdf;" horiz-adv-x="1247" d="M63 881v71l166 9v36q0 107 31.5 190t87 133.5t125.5 76.5t152 26q163 0 254.5 -75.5t91.5 -206.5q0 -48 -29.5 -92.5t-71.5 -80t-83.5 -72t-71 -82.5t-29.5 -97q0 -36 21 -65t54.5 -48t77 -39t89 -36.5t89 -42t77 -54.5t54.5 -74.5t21 -101.5q0 -76 -30 -131.5t-81.5 -86 t-110 -44.5t-124.5 -14q-74 0 -150 23t-136 60l34 101q36 -34 107 -65t145 -31q246 0 246 176q0 52 -26.5 91.5t-68.5 64.5t-93 46t-102.5 43t-93.5 49t-68.5 70.5t-26.5 100.5q0 64 29 118.5t70 91.5t82 70.5t70 71.5t29 78q0 90 -61 143t-188 53q-137 0 -214 -81t-77 -244 v-1010h-101v881h-166z" />
<glyph unicode="&#xe0;" horiz-adv-x="991" d="M100 242q0 81 36 138t99.5 87t133.5 42.5t155 12.5q82 0 170 -10l2 172q0 122 -57 172.5t-158 50.5q-33 0 -65.5 -5.5t-68 -19t-57.5 -43.5t-22 -73q0 -17 11 -59l-99 -11q-12 38 -12 72q0 101 97 164t227 63q56 0 106 -13.5t96 -44t73.5 -89.5t27.5 -141l-2 -527 q0 -76 31.5 -100t76.5 -10l12 -82q-31 -8 -63 -8q-62 0 -101.5 35t-48.5 94q-142 -129 -319 -129q-126 0 -203.5 74t-77.5 188zM207 258q0 -93 55 -141.5t154 -48.5q71 0 149.5 40t128.5 95v227q-94 16 -180 16q-60 0 -110.5 -8.5t-97 -28t-73 -58.5t-26.5 -93zM231 1374 l78 76l252 -268l-53 -49z" />
<glyph unicode="&#xe1;" horiz-adv-x="991" d="M100 242q0 81 36 138t99.5 87t133.5 42.5t155 12.5q82 0 170 -10l2 172q0 122 -57 172.5t-158 50.5q-33 0 -65.5 -5.5t-68 -19t-57.5 -43.5t-22 -73q0 -17 11 -59l-99 -11q-12 38 -12 72q0 101 97 164t227 63q56 0 106 -13.5t96 -44t73.5 -89.5t27.5 -141l-2 -527 q0 -76 31.5 -100t76.5 -10l12 -82q-31 -8 -63 -8q-62 0 -101.5 35t-48.5 94q-142 -129 -319 -129q-126 0 -203.5 74t-77.5 188zM207 258q0 -93 55 -141.5t154 -48.5q71 0 149.5 40t128.5 95v227q-94 16 -180 16q-60 0 -110.5 -8.5t-97 -28t-73 -58.5t-26.5 -93zM356 1182 l252 268l78 -76l-276 -241z" />
<glyph unicode="&#xe2;" horiz-adv-x="991" d="M100 242q0 81 36 138t99.5 87t133.5 42.5t155 12.5q82 0 170 -10l2 172q0 122 -57 172.5t-158 50.5q-33 0 -65.5 -5.5t-68 -19t-57.5 -43.5t-22 -73q0 -17 11 -59l-99 -11q-12 38 -12 72q0 101 97 164t227 63q56 0 106 -13.5t96 -44t73.5 -89.5t27.5 -141l-2 -527 q0 -76 31.5 -100t76.5 -10l12 -82q-31 -8 -63 -8q-62 0 -101.5 35t-48.5 94q-142 -129 -319 -129q-126 0 -203.5 74t-77.5 188zM197 1169l243 238h70l248 -231l-66 -66l-219 211l-213 -213zM207 258q0 -93 55 -141.5t154 -48.5q71 0 149.5 40t128.5 95v227q-94 16 -180 16 q-60 0 -110.5 -8.5t-97 -28t-73 -58.5t-26.5 -93z" />
<glyph unicode="&#xe3;" horiz-adv-x="991" d="M100 242q0 81 36 138t99.5 87t133.5 42.5t155 12.5q82 0 170 -10l2 172q0 122 -57 172.5t-158 50.5q-33 0 -65.5 -5.5t-68 -19t-57.5 -43.5t-22 -73q0 -17 11 -59l-99 -11q-12 38 -12 72q0 101 97 164t227 63q56 0 106 -13.5t96 -44t73.5 -89.5t27.5 -141l-2 -527 q0 -76 31.5 -100t76.5 -10l12 -82q-31 -8 -63 -8q-62 0 -101.5 35t-48.5 94q-142 -129 -319 -129q-126 0 -203.5 74t-77.5 188zM180 1243q97 111 185 111q60 0 120 -31t97 -31q83 0 137 66l39 -45q-83 -107 -178 -107q-45 0 -108.5 31t-102.5 31q-87 0 -146 -72zM207 258 q0 -93 55 -141.5t154 -48.5q71 0 149.5 40t128.5 95v227q-94 16 -180 16q-60 0 -110.5 -8.5t-97 -28t-73 -58.5t-26.5 -93z" />
<glyph unicode="&#xe4;" horiz-adv-x="991" d="M100 242q0 81 36 138t99.5 87t133.5 42.5t155 12.5q82 0 170 -10l2 172q0 122 -57 172.5t-158 50.5q-33 0 -65.5 -5.5t-68 -19t-57.5 -43.5t-22 -73q0 -17 11 -59l-99 -11q-12 38 -12 72q0 101 97 164t227 63q56 0 106 -13.5t96 -44t73.5 -89.5t27.5 -141l-2 -527 q0 -76 31.5 -100t76.5 -10l12 -82q-31 -8 -63 -8q-62 0 -101.5 35t-48.5 94q-142 -129 -319 -129q-126 0 -203.5 74t-77.5 188zM207 258q0 -93 55 -141.5t154 -48.5q71 0 149.5 40t128.5 95v227q-94 16 -180 16q-60 0 -110.5 -8.5t-97 -28t-73 -58.5t-26.5 -93zM225 1288 q0 31 20.5 52.5t51.5 21.5t52.5 -21.5t21.5 -52.5q0 -30 -21.5 -50.5t-52.5 -20.5t-51.5 20t-20.5 51zM569 1288q0 31 20.5 52.5t51.5 21.5t52.5 -21.5t21.5 -52.5q0 -30 -21.5 -50.5t-52.5 -20.5t-51.5 20t-20.5 51z" />
<glyph unicode="&#xe5;" horiz-adv-x="991" d="M100 242q0 81 36 138t99.5 87t133.5 42.5t155 12.5q82 0 170 -10l2 172q0 122 -57 172.5t-158 50.5q-33 0 -65.5 -5.5t-68 -19t-57.5 -43.5t-22 -73q0 -17 11 -59l-99 -11q-12 38 -12 72q0 101 97 164t227 63q56 0 106 -13.5t96 -44t73.5 -89.5t27.5 -141l-2 -527 q0 -76 31.5 -100t76.5 -10l12 -82q-31 -8 -63 -8q-62 0 -101.5 35t-48.5 94q-142 -129 -319 -129q-126 0 -203.5 74t-77.5 188zM207 258q0 -93 55 -141.5t154 -48.5q71 0 149.5 40t128.5 95v227q-94 16 -180 16q-60 0 -110.5 -8.5t-97 -28t-73 -58.5t-26.5 -93zM262 1305 q0 85 59 138.5t148 53.5q91 0 146 -51.5t55 -140.5q0 -83 -57.5 -139t-147.5 -56q-89 0 -146 54t-57 141zM340 1305q0 -63 33 -97t92 -34q123 0 123 131t-123 131q-62 0 -93.5 -34.5t-31.5 -96.5z" />
<glyph unicode="&#xe6;" horiz-adv-x="1568" d="M100 242q0 65 24.5 115t64 81t96 50t114 26.5t123.5 7.5q77 0 162 -10q0 62 12 117v55q0 122 -56.5 171.5t-158.5 49.5q-33 0 -65.5 -5.5t-68 -19t-57.5 -43t-22 -71.5q0 -17 11 -59l-99 -11q-12 38 -12 72q0 101 97 164t227 63q60 0 112 -14t100 -53.5t70 -100.5 q55 81 138.5 124.5t183.5 43.5q356 0 356 -448v-60h-661q0 -202 90 -310.5t268 -108.5q79 0 145.5 30t108.5 66l31 -92q-141 -92 -308 -92q-249 0 -358 170q-101 -99 -191.5 -134.5t-195.5 -35.5q-126 0 -203.5 74t-77.5 188zM207 258q0 -93 55 -141.5t154 -48.5 q90 0 174.5 47t136.5 110q-37 92 -43 207q-79 14 -170 14q-60 0 -110.5 -8.5t-97 -28t-73 -58.5t-26.5 -93zM793 569h557q5 157 -60.5 247.5t-197.5 90.5q-134 0 -209.5 -86.5t-89.5 -251.5z" />
<glyph unicode="&#xe7;" horiz-adv-x="925" d="M115 467q0 134 36.5 237t101 165.5t146.5 94t179 31.5q138 0 247 -53l-28 -102q-111 67 -226 67q-171 0 -260.5 -114.5t-89.5 -323.5q0 -185 91.5 -293t267.5 -108q64 0 122 22.5t93 52.5l30 -92q-101 -65 -243 -71l-29 -105q90 -13 137 -62t47 -110q0 -68 -60.5 -119 t-162.5 -51q-99 0 -174 51l41 90q20 -23 60.5 -40t82.5 -17q57 0 87 24t30 60q0 48 -49.5 81.5t-142.5 37.5l49 164q-182 17 -282.5 143.5t-100.5 339.5z" />
<glyph unicode="&#xe8;" horiz-adv-x="1003" d="M119 487q0 238 114.5 373t296.5 135q357 0 357 -448v-60h-662q0 -202 90.5 -310.5t268.5 -108.5q79 0 145.5 30t108.5 66l30 -92q-141 -92 -307 -92q-211 0 -326.5 127.5t-115.5 379.5zM227 569h557q5 157 -60.5 247.5t-197.5 90.5q-134 0 -209.5 -86.5t-89.5 -251.5z M295 1374l78 76l252 -268l-54 -49z" />
<glyph unicode="&#xe9;" horiz-adv-x="1003" d="M119 487q0 238 114.5 373t296.5 135q357 0 357 -448v-60h-662q0 -202 90.5 -310.5t268.5 -108.5q79 0 145.5 30t108.5 66l30 -92q-141 -92 -307 -92q-211 0 -326.5 127.5t-115.5 379.5zM227 569h557q5 157 -60.5 247.5t-197.5 90.5q-134 0 -209.5 -86.5t-89.5 -251.5z M416 1182l252 268l77 -76l-276 -241z" />
<glyph unicode="&#xea;" horiz-adv-x="1003" d="M119 487q0 238 114.5 373t296.5 135q357 0 357 -448v-60h-662q0 -202 90.5 -310.5t268.5 -108.5q79 0 145.5 30t108.5 66l30 -92q-141 -92 -307 -92q-211 0 -326.5 127.5t-115.5 379.5zM227 569h557q5 157 -60.5 247.5t-197.5 90.5q-134 0 -209.5 -86.5t-89.5 -251.5z M254 1169l244 238h69l248 -231l-65 -66l-220 211l-213 -213z" />
<glyph unicode="&#xeb;" horiz-adv-x="1003" d="M119 487q0 238 114.5 373t296.5 135q357 0 357 -448v-60h-662q0 -202 90.5 -310.5t268.5 -108.5q79 0 145.5 30t108.5 66l30 -92q-141 -92 -307 -92q-211 0 -326.5 127.5t-115.5 379.5zM227 569h557q5 157 -60.5 247.5t-197.5 90.5q-134 0 -209.5 -86.5t-89.5 -251.5z M274 1288q0 31 20.5 52.5t51.5 21.5t52.5 -21.5t21.5 -52.5q0 -30 -21.5 -50.5t-52.5 -20.5t-51.5 20t-20.5 51zM618 1288q0 31 20.5 52.5t51.5 21.5t52.5 -21.5t21.5 -52.5q0 -30 -21.5 -50.5t-52.5 -20.5t-51.5 20t-20.5 51z" />
<glyph unicode="&#xec;" horiz-adv-x="444" d="M-6 1374l78 76l252 -268l-54 -49zM172 0v975h100v-975h-100z" />
<glyph unicode="&#xed;" horiz-adv-x="444" d="M111 1182l251 268l78 -76l-276 -241zM172 0v975h100v-975h-100z" />
<glyph unicode="&#xee;" horiz-adv-x="444" d="M-61 1169l243 238h70l248 -231l-66 -66l-219 211l-213 -213zM172 0v975h100v-975h-100z" />
<glyph unicode="&#xef;" horiz-adv-x="444" d="M-23 1288q0 31 20.5 52.5t51.5 21.5t52.5 -21.5t21.5 -52.5q0 -30 -21.5 -50.5t-52.5 -20.5t-51.5 20t-20.5 51zM172 0v975h100v-975h-100zM322 1288q0 31 20.5 52.5t50.5 21.5q31 0 52.5 -21.5t21.5 -52.5q0 -30 -21.5 -50.5t-52.5 -20.5t-51 20t-20 51z" />
<glyph unicode="&#xf0;" horiz-adv-x="1124" d="M117 487q0 228 116.5 368t317.5 140q67 0 134 -19t114 -56q-95 175 -236 294l-131 -139l-59 58l123 133q-59 42 -138 86l45 61q87 -41 152 -84l121 131l59 -59l-112 -121q180 -138 273 -336.5t93 -443.5v-13q0 -81 -17 -155t-52.5 -138.5t-86.5 -112t-123.5 -74.5 t-158.5 -27q-207 0 -320.5 130.5t-113.5 376.5zM223 487q0 -419 328 -419q88 0 153 30.5t103 86.5t56 126.5t20 159.5q0 194 -47 330q-44 46 -125 76t-160 30q-89 0 -154.5 -33t-102.5 -92.5t-54 -132.5t-17 -162z" />
<glyph unicode="&#xf1;" horiz-adv-x="1097" d="M172 0v975h98v-103q82 61 168 92t158 31q340 0 340 -336v-659h-100v618q0 159 -57.5 224t-184.5 65q-151 0 -322 -123v-784h-100zM264 1243q97 111 185 111q60 0 120 -31t97 -31q83 0 137 66l39 -45q-83 -107 -178 -107q-45 0 -108.5 31t-102.5 31q-87 0 -146 -72z" />
<glyph unicode="&#xf2;" horiz-adv-x="1105" d="M117 487q0 228 116.5 368t317.5 140q211 0 324.5 -131t113.5 -377q0 -81 -17 -155t-52.5 -138.5t-86.5 -112t-123.5 -74.5t-158.5 -27q-207 0 -320.5 130.5t-113.5 376.5zM223 487q0 -419 328 -419q90 0 156 31.5t103.5 90t55 132t17.5 165.5q0 89 -17.5 162t-55 132.5 t-103.5 92.5t-156 33q-89 0 -154.5 -33t-102.5 -92.5t-54 -132.5t-17 -162zM285 1374l77 76l252 -268l-53 -49z" />
<glyph unicode="&#xf3;" horiz-adv-x="1105" d="M117 487q0 228 116.5 368t317.5 140q211 0 324.5 -131t113.5 -377q0 -81 -17 -155t-52.5 -138.5t-86.5 -112t-123.5 -74.5t-158.5 -27q-207 0 -320.5 130.5t-113.5 376.5zM223 487q0 -419 328 -419q90 0 156 31.5t103.5 90t55 132t17.5 165.5q0 89 -17.5 162t-55 132.5 t-103.5 92.5t-156 33q-89 0 -154.5 -33t-102.5 -92.5t-54 -132.5t-17 -162zM426 1182l252 268l78 -76l-277 -241z" />
<glyph unicode="&#xf4;" horiz-adv-x="1105" d="M117 487q0 228 116.5 368t317.5 140q211 0 324.5 -131t113.5 -377q0 -81 -17 -155t-52.5 -138.5t-86.5 -112t-123.5 -74.5t-158.5 -27q-207 0 -320.5 130.5t-113.5 376.5zM223 487q0 -419 328 -419q90 0 156 31.5t103.5 90t55 132t17.5 165.5q0 89 -17.5 162t-55 132.5 t-103.5 92.5t-156 33q-89 0 -154.5 -33t-102.5 -92.5t-54 -132.5t-17 -162zM270 1169l244 238h70l247 -231l-65 -66l-219 211l-213 -213z" />
<glyph unicode="&#xf5;" horiz-adv-x="1105" d="M117 487q0 228 116.5 368t317.5 140q211 0 324.5 -131t113.5 -377q0 -81 -17 -155t-52.5 -138.5t-86.5 -112t-123.5 -74.5t-158.5 -27q-207 0 -320.5 130.5t-113.5 376.5zM223 487q0 -419 328 -419q90 0 156 31.5t103.5 90t55 132t17.5 165.5q0 89 -17.5 162t-55 132.5 t-103.5 92.5t-156 33q-89 0 -154.5 -33t-102.5 -92.5t-54 -132.5t-17 -162zM258 1243q97 111 184 111q60 0 120 -31t97 -31q84 0 138 66l39 -45q-83 -107 -179 -107q-45 0 -108.5 31t-102.5 31q-86 0 -145 -72z" />
<glyph unicode="&#xf6;" horiz-adv-x="1105" d="M117 487q0 228 116.5 368t317.5 140q211 0 324.5 -131t113.5 -377q0 -81 -17 -155t-52.5 -138.5t-86.5 -112t-123.5 -74.5t-158.5 -27q-207 0 -320.5 130.5t-113.5 376.5zM223 487q0 -419 328 -419q90 0 156 31.5t103.5 90t55 132t17.5 165.5q0 89 -17.5 162t-55 132.5 t-103.5 92.5t-156 33q-89 0 -154.5 -33t-102.5 -92.5t-54 -132.5t-17 -162zM297 1288q0 31 20.5 52.5t51.5 21.5t52 -21.5t21 -52.5t-21 -51t-52 -20t-51.5 20t-20.5 51zM641 1288q0 31 20.5 52.5t51.5 21.5t52 -21.5t21 -52.5t-21 -51t-52 -20t-51.5 20t-20.5 51z" />
<glyph unicode="&#xf7;" horiz-adv-x="976" d="M131 571v86h715v-86h-715zM414 367q0 31 20 52t51 21t52.5 -21t21.5 -52t-21.5 -51.5t-52.5 -20.5t-51 20.5t-20 51.5zM414 858q0 31 20.5 52.5t50.5 21.5q31 0 52.5 -21.5t21.5 -52.5t-21.5 -51.5t-52.5 -20.5t-51 20.5t-20 51.5z" />
<glyph unicode="&#xf8;" horiz-adv-x="1105" d="M117 487q0 228 116.5 368t317.5 140q167 0 276 -86l52 66h96l-92 -121q106 -130 106 -367q0 -81 -17 -155t-52.5 -138.5t-86.5 -112t-123.5 -74.5t-158.5 -27q-166 0 -272 83l-50 -63h-96l90 119q-106 130 -106 368zM223 487q0 -183 64 -288l481 632q-82 76 -217 76 q-89 0 -154.5 -33t-102.5 -92.5t-54 -132.5t-17 -162zM336 139q74 -71 215 -71q90 0 156 31.5t103.5 90t55 132t17.5 165.5q0 176 -66 283z" />
<glyph unicode="&#xf9;" horiz-adv-x="1093" d="M162 313v662h100v-621q0 -158 59.5 -223t186.5 -65q144 0 313 122v787h101v-975h-99v100q-165 -123 -317 -123q-50 0 -93.5 7t-91.5 29t-81.5 57.5t-55.5 97.5t-22 145zM313 1374l78 76l252 -268l-53 -49z" />
<glyph unicode="&#xfa;" horiz-adv-x="1093" d="M162 313v662h100v-621q0 -158 59.5 -223t186.5 -65q144 0 313 122v787h101v-975h-99v100q-165 -123 -317 -123q-50 0 -93.5 7t-91.5 29t-81.5 57.5t-55.5 97.5t-22 145zM457 1182l252 268l77 -76l-276 -241z" />
<glyph unicode="&#xfb;" horiz-adv-x="1093" d="M162 313v662h100v-621q0 -158 59.5 -223t186.5 -65q144 0 313 122v787h101v-975h-99v100q-165 -123 -317 -123q-50 0 -93.5 7t-91.5 29t-81.5 57.5t-55.5 97.5t-22 145zM258 1169l244 238h69l248 -231l-65 -66l-219 211l-213 -213z" />
<glyph unicode="&#xfc;" horiz-adv-x="1093" d="M162 313v662h100v-621q0 -158 59.5 -223t186.5 -65q144 0 313 122v787h101v-975h-99v100q-165 -123 -317 -123q-50 0 -93.5 7t-91.5 29t-81.5 57.5t-55.5 97.5t-22 145zM307 1288q0 31 20.5 52.5t51.5 21.5t52.5 -21.5t21.5 -52.5q0 -30 -21.5 -50.5t-52.5 -20.5 t-51.5 20t-20.5 51zM651 1288q0 31 20.5 52.5t51.5 21.5t52.5 -21.5t21.5 -52.5q0 -30 -21.5 -50.5t-52.5 -20.5t-51.5 20t-20.5 51z" />
<glyph unicode="&#xfd;" horiz-adv-x="980" d="M43 975h100l246 -602l111 -264l104 268l236 598h96l-574 -1426h-92l174 443zM403 1182l252 268l78 -76l-276 -241z" />
<glyph unicode="&#xfe;" horiz-adv-x="1099" d="M170 -451v1854h100v-539q165 131 314 131q192 0 297.5 -133.5t105.5 -355.5q0 -239 -135.5 -382.5t-359.5 -143.5q-106 0 -222 43v-474h-100zM270 125q99 -57 222 -57q186 0 286.5 114.5t100.5 317.5q0 195 -86 300t-226 105q-141 0 -297 -131v-649z" />
<glyph unicode="&#xff;" horiz-adv-x="980" d="M43 975h100l246 -602l111 -264l104 268l236 598h96l-574 -1426h-92l174 443zM250 1288q0 31 20.5 52.5t51.5 21.5t52 -21.5t21 -52.5t-21 -51t-52 -20t-51.5 20t-20.5 51zM594 1288q0 31 20.5 52.5t51.5 21.5t52 -21.5t21 -52.5t-21 -51t-52 -20t-51.5 20t-20.5 51z" />
<glyph unicode="&#x152;" horiz-adv-x="1736" d="M131 664q0 200 69 354.5t204 243t319 88.5q84 0 162 -19h717v-98h-631v-500h557v-96h-557v-539h631v-98h-715q-95 -20 -178 -20q-146 0 -256.5 48.5t-181 138.5t-105.5 215t-35 282zM242 664q0 -592 467 -592q81 0 157 18v1147q-69 16 -143 16q-124 0 -216.5 -41.5 t-150 -120t-86 -185t-28.5 -242.5z" />
<glyph unicode="&#x153;" horiz-adv-x="1771" d="M117 487q0 228 116.5 368t317.5 140q286 0 387 -235q52 114 145.5 174.5t214.5 60.5q357 0 357 -448v-60h-662q0 -202 90.5 -310.5t268.5 -108.5q79 0 145.5 30t108.5 66l30 -92q-141 -92 -307 -92q-297 0 -397 239q-52 -111 -148.5 -175t-232.5 -64q-207 0 -320.5 130.5 t-113.5 376.5zM223 487q0 -419 328 -419q90 0 156 31.5t103.5 90t55 132t17.5 165.5q0 89 -17.5 162t-55 132.5t-103.5 92.5t-156 33q-89 0 -154.5 -33t-102.5 -92.5t-54 -132.5t-17 -162zM995 569h557q5 157 -60.5 247.5t-197.5 90.5q-134 0 -209.5 -86.5t-89.5 -251.5z " />
<glyph unicode="&#x178;" horiz-adv-x="1046" d="M20 1331h111l207 -362l199 -371l180 367l190 366h103l-424 -817v-514h-105v518zM295 1583q0 31 20.5 52.5t51.5 21.5t52 -21.5t21 -52.5t-21 -51.5t-52 -20.5t-51.5 20.5t-20.5 51.5zM639 1583q0 31 20.5 52.5t51.5 21.5t52 -21.5t21 -52.5t-21 -51.5t-52 -20.5 t-51.5 20.5t-20.5 51.5z" />
<glyph unicode="&#x2c6;" horiz-adv-x="921" d="M178 1169l244 238h70l247 -231l-65 -66l-219 211l-213 -213z" />
<glyph unicode="&#x2dc;" horiz-adv-x="921" d="M152 1243q97 111 184 111q60 0 120 -31t97 -31q83 0 137 66l39 -45q-83 -107 -178 -107q-45 0 -108.5 31t-102.5 31q-86 0 -145 -72z" />
<glyph unicode="&#x2000;" horiz-adv-x="897" />
<glyph unicode="&#x2001;" horiz-adv-x="1794" />
<glyph unicode="&#x2002;" horiz-adv-x="897" />
<glyph unicode="&#x2003;" horiz-adv-x="1794" />
<glyph unicode="&#x2004;" horiz-adv-x="598" />
<glyph unicode="&#x2005;" horiz-adv-x="448" />
<glyph unicode="&#x2006;" horiz-adv-x="299" />
<glyph unicode="&#x2007;" horiz-adv-x="299" />
<glyph unicode="&#x2008;" horiz-adv-x="224" />
<glyph unicode="&#x2009;" horiz-adv-x="358" />
<glyph unicode="&#x200a;" horiz-adv-x="99" />
<glyph unicode="&#x2010;" horiz-adv-x="901" d="M199 481v99h503v-99h-503z" />
<glyph unicode="&#x2011;" horiz-adv-x="901" d="M199 481v99h503v-99h-503z" />
<glyph unicode="&#x2012;" horiz-adv-x="901" d="M199 481v99h503v-99h-503z" />
<glyph unicode="&#x2013;" horiz-adv-x="1323" d="M211 496v82h901v-82h-901z" />
<glyph unicode="&#x2014;" horiz-adv-x="2347" d="M211 496v82h1925v-82h-1925z" />
<glyph unicode="&#x2018;" horiz-adv-x="362" d="M113 1049q8 106 41.5 219.5t87.5 204.5l82 -21q-103 -210 -111 -403h-100z" />
<glyph unicode="&#x2019;" horiz-adv-x="362" d="M90 1053q103 210 111 403h100q-8 -106 -41.5 -219.5t-87.5 -204.5z" />
<glyph unicode="&#x201a;" horiz-adv-x="389" d="M41 -266q104 212 111 383h92q-15 -212 -129 -404z" />
<glyph unicode="&#x201c;" horiz-adv-x="661" d="M113 1049q8 106 41.5 219.5t87.5 204.5l82 -21q-103 -210 -111 -403h-100zM412 1049q8 106 41.5 219.5t87.5 204.5l82 -21q-103 -210 -111 -403h-100z" />
<glyph unicode="&#x201d;" horiz-adv-x="661" d="M90 1053q103 210 111 403h100q-8 -106 -41.5 -219.5t-87.5 -204.5zM389 1053q103 210 111 403h100q-8 -106 -41.5 -219.5t-87.5 -204.5z" />
<glyph unicode="&#x201e;" horiz-adv-x="696" d="M41 -266q104 212 111 383h92q-15 -212 -129 -404zM348 -266q104 212 111 383h92q-15 -212 -129 -404z" />
<glyph unicode="&#x2022;" horiz-adv-x="731" d="M119 551q0 103 71.5 175.5t174.5 72.5t175 -72.5t72 -175.5t-72 -174.5t-175 -71.5t-174.5 71.5t-71.5 174.5z" />
<glyph unicode="&#x2026;" horiz-adv-x="1378" d="M129 53q0 34 20.5 52t55.5 18q34 0 56 -17.5t22 -52.5q0 -36 -22 -54.5t-56 -18.5q-76 0 -76 73zM612 53q0 34 20.5 52t55.5 18q34 0 56 -17.5t22 -52.5q0 -36 -22 -54.5t-56 -18.5q-76 0 -76 73zM1096 53q0 34 20 52t55 18q33 0 55.5 -17.5t22.5 -52.5 q0 -36 -22.5 -54.5t-55.5 -18.5q-75 0 -75 73z" />
<glyph unicode="&#x202f;" horiz-adv-x="358" />
<glyph unicode="&#x2039;" horiz-adv-x="520" d="M86 479l246 473h100l-237 -465l237 -481h-100z" />
<glyph unicode="&#x203a;" horiz-adv-x="520" d="M88 6l238 481l-238 465h100l246 -473l-246 -473h-100z" />
<glyph unicode="&#x205f;" horiz-adv-x="448" />
<glyph unicode="&#x20ac;" horiz-adv-x="1212" d="M86 471l20 80h134q-2 33 -2 102q0 43 4 125h-136l21 80h125q39 241 175.5 366.5t367.5 125.5q94 0 177.5 -20t131.5 -48l-37 -111q-47 38 -120 60t-150 22q-105 0 -183 -26t-129.5 -78t-81 -123t-43.5 -168h605l-21 -80h-592q-4 -39 -4 -121q0 -73 2 -106h553l-20 -80 h-525q25 -206 124.5 -302.5t305.5 -96.5q95 0 181.5 22t126.5 49l28 -94q-132 -69 -340 -69q-238 0 -371.5 115.5t-164.5 375.5h-162z" />
<glyph unicode="&#x2122;" horiz-adv-x="1802" d="M31 1266v67h669v-67h-294v-738h-80v738h-295zM758 528v805h90l264 -524l96 -199l90 189l256 534h95v-805h-78v689l-76 -173l-250 -516h-71l-250 490l-90 178l2 -170v-498h-78z" />
<glyph unicode="&#x25fc;" horiz-adv-x="972" d="M0 0v973h973v-973h-973z" />
</font>
</defs>
</svg>
